<?xml version="1.0" standalone="no"?>
<!DOCTYPE svg PUBLIC "-//W3C//DTD SVG 1.1//EN" "http://www.w3.org/Graphics/SVG/1.1/DTD/svg11.dtd" >
<svg xmlns="http://www.w3.org/2000/svg" xmlns:xlink="http://www.w3.org/1999/xlink" version="1.1">
<metadata></metadata>
<defs>
<font id="tex_gyre_pagellabold" horiz-adv-x="1024" >
<font-face units-per-em="2048" ascent="1520" descent="-528" />
<missing-glyph horiz-adv-x="512" />
<glyph unicode="&#xfb01;" horiz-adv-x="1251" d="M1219 -6q-138 6 -277 6q-132 0 -264 -6v76l72 4q48 3 60.5 25.5t12.5 105.5v463q0 70 -18.5 101.5t-59.5 31.5h-63l-14 -39h-228v-557q0 -85 13.5 -106.5t68.5 -24.5l72 -4v-76q-141 6 -281 6q-146 0 -293 -6v76l84 4q57 3 71.5 25t14.5 106v557l-161 -10v49 q96 47 161 92v88q0 122 19.5 170.5t93.5 110.5l152 127q58 49 99 67.5t91 18.5q29 0 86 -13v-198l-33 -15q-46 29 -75 39t-62 10q-70 0 -95.5 -39.5t-25.5 -148.5v-221h228q136 0 241 31l148 45h16v-760q0 -82 13 -105t61 -26l72 -4v-76zM1120 1292q0 64 -44 109t-107 45 q-66 0 -111 -44t-45 -108q0 -65 45 -110t109 -45q63 0 108 45t45 108z" />
<glyph unicode="&#xfb02;" horiz-adv-x="1251" d="M1214 -6q-138 6 -276 6q-132 0 -264 -6v76l71 4q48 3 61 26t13 105v958q0 91 -9 115.5t-44 28.5l-55 6v-68l-31 -8q-52 61 -119 61q-55 0 -80.5 -45t-25.5 -143v-221q138 0 247 8l9 -16l-23 -119h-233v-557v-20q-1 -66 14.5 -86t87.5 -25l51 -4v-76q-141 6 -280 6 q-146 0 -293 -6v76l84 4q57 3 71.5 25t14.5 106v557l-162 -10v49q99 48 162 92v88q0 123 19 171t93 110l152 127q57 48 97.5 67t84.5 19l60 -7v-75q157 22 217 41l125 41l16 -13v-1257q0 -82 13 -105t61 -26l71 -4v-76z" />
<glyph unicode="&#xfb03;" horiz-adv-x="1988" d="M1823 1292q0 64 -44.5 109t-107.5 45q-66 0 -110.5 -43.5t-44.5 -108.5t44.5 -110t108.5 -45q63 0 108.5 45t45.5 108zM1921 -6q-138 6 -276 6q-133 0 -265 -6v76l72 4q48 3 61 26t13 105v463q0 70 -18.5 101.5t-59.5 31.5h-64l-14 -39h-227v-557q0 -85 13.5 -106.5 t68.5 -24.5l71 -4v-76q-141 6 -280 6q-146 0 -293 -6v76l84 4q57 3 71.5 25t14.5 106v557h-404v-557q0 -74 6 -90q11 -31 67 -38q13 -2 30 -3l76 -4v-76q-159 6 -320 6q-140 0 -278 -6v76l84 4q57 3 71.5 25t14.5 106v557l-162 -10v49q99 48 162 92v88q0 123 19 171t93 110 l152 127q58 49 99 67.5t91 18.5q29 0 86 -13v-198l-32 -15q-46 29 -75.5 39t-62.5 10q-70 0 -95.5 -39.5t-25.5 -148.5v-221h404v92q0 122 19.5 170.5t93.5 110.5l151 127q58 49 99.5 67.5t91.5 18.5q29 0 86 -13v-198l-33 -15q-46 29 -75 39t-62 10q-70 0 -95.5 -39.5 t-25.5 -148.5v-221h227q137 0 242 31l147 45h17v-760q0 -83 12.5 -105.5t60.5 -25.5l72 -4v-76z" />
<glyph unicode="&#xfb04;" horiz-adv-x="1953" d="M1917 -6q-138 6 -277 6q-132 0 -264 -6v76l72 4q48 3 61 26t13 105v958q0 63 -4 91t-14.5 39t-35.5 14l-55 6v-68l-31 -8q-52 61 -118 61q-56 0 -81.5 -45t-25.5 -143v-221l248 8l8 -16l-22 -119h-234v-557v-18q0 -37 1.5 -52t11 -31t30.5 -21.5t60 -8.5l51 -4v-76 q-141 6 -281 6q-146 0 -293 -6v76l84 4q57 3 71.5 25t14.5 106v557h-418v-557q0 -74 6 -90q11 -31 67 -38q13 -2 30 -3l72 -4v-76q-156 6 -316 6q-140 0 -278 -6v76l84 4q57 3 71.5 25t14.5 106v557l-162 -10v49q99 48 162 92v88q0 123 19 171t93 110l152 127q58 49 99 67.5 t91 18.5q29 0 86 -13v-198l-32 -15q-46 29 -75.5 39t-62.5 10q-70 0 -95.5 -39.5t-25.5 -148.5v-221h418v92q0 122 19.5 170.5t93.5 110.5l151 127q57 47 98 66.5t85 19.5l59 -7v-75q157 22 217 41l125 41l17 -13v-1257q0 -83 12.5 -105.5t60.5 -25.5l72 -4v-76z" />
<glyph horiz-adv-x="0" />
<glyph horiz-adv-x="682" />
<glyph unicode=" "  horiz-adv-x="512" />
<glyph unicode="&#x09;" horiz-adv-x="512" />
<glyph unicode="&#xa0;" horiz-adv-x="512" />
<glyph unicode="!" horiz-adv-x="569" d="M449 133q0 -63 -48.5 -110.5t-113.5 -47.5q-63 0 -110.5 47t-47.5 111q0 65 48.5 113.5t113.5 48.5q61 0 109.5 -49.5t48.5 -112.5zM449 1409q0 -77 -15 -197l-102 -761l-78 -43l-10 16l-97 733q-6 52 -8 162l205 90h105z" />
<glyph unicode="&#x22;" horiz-adv-x="823" d="M324 1278q0 -12 -2 -18l-91 -490h-94l-90 490q-2 8 -2 18q0 55 43 100t96 45q54 0 97 -44.5t43 -100.5zM778 1278q0 -12 -2 -18l-90 -490h-94l-90 490q-2 8 -2 18q0 55 43 100t96 45q54 0 96.5 -44.5t42.5 -100.5z" />
<glyph unicode="#" d="M1016 811h-213l-33 -217h193v-154h-215l-66 -440h-154l66 440h-221l-66 -440h-153l65 440h-211v154h236l32 217h-210v154h233l61 413h154l-61 -413h219l59 413h154l-60 -413h191v-154zM649 811h-219l-33 -217h219z" />
<glyph unicode="$" d="M967 438q0 -127 -56.5 -231.5t-156.5 -167.5q-46 -28 -89.5 -41.5t-117.5 -24.5l4 -206h-105l7 198q-228 8 -385 82l-7 19q14 131 19 305h84v-82q0 -90 59 -135q99 -69 230 -78v491q-125 17 -192.5 42t-113.5 71q-90 87 -90 266q0 193 123 301q53 46 111 72t162 49 l-4 109h102l-4 -109q187 -3 338 -68l4 -14q-29 -104 -29 -287h-80q0 91 -6.5 133t-23.5 54q-39 31 -93.5 50.5t-109.5 20.5v-434q140 -27 212.5 -55.5t119.5 -77.5q88 -91 88 -252zM748 330q0 182 -201 217v-465q98 29 149.5 92.5t51.5 155.5zM453 836v421 q-80 -6 -133.5 -70t-53.5 -153q0 -168 187 -198z" />
<glyph unicode="%" horiz-adv-x="1820" d="M793 1098q0 -143 -96 -239.5t-238 -96.5q-141 0 -237.5 96.5t-96.5 237.5q0 149 94.5 243.5t243.5 94.5q141 0 235.5 -96t94.5 -240zM588 1098q0 270 -127 270q-131 0 -131 -264q0 -142 31.5 -209.5t97.5 -67.5t97.5 66.5t31.5 204.5zM1696 336q0 -143 -96 -239.5 t-238 -96.5q-141 0 -237.5 96.5t-96.5 237.5q0 149 94.5 243.5t243.5 94.5q141 0 235.5 -96t94.5 -240zM1491 336q0 270 -127 270q-131 0 -131 -264q0 -142 31.5 -209t97.5 -67t97.5 66t31.5 204zM1329 1462l-749 -1480h-101l750 1480h100z" />
<glyph unicode="&#x26;" horiz-adv-x="1705" d="M1665 184q-132 -113 -190 -202l-136 -7q-98 0 -180 31.5t-170 102.5q-105 -77 -200 -110.5t-211 -33.5q-207 0 -339.5 111t-132.5 284q0 132 71.5 222.5t246.5 181.5q-38 94 -53 153t-15 113q0 58 22.5 104t82.5 111l71 78q34 36 90.5 57t118.5 21q107 0 171.5 -58 t64.5 -155q0 -107 -70.5 -194.5t-253.5 -205.5q94 -139 193.5 -248.5t228.5 -215.5q37 57 51.5 99t14.5 89q0 73 -41 160h-185q51 94 60 135l342 -10q107 0 297 12l6 -18q-30 -68 -41 -144q-153 15 -289 15q6 -50 6 -76q0 -73 -31 -146.5t-102 -167.5q160 -100 310 -100 q11 0 21.5 1t21 5t17 6t18.5 9.5l16 10t18 12t17 11.5l34 23zM903 170q-149 129 -250 246t-198 272q-60 -57 -82.5 -102t-22.5 -109q0 -148 109.5 -258t257.5 -110q99 0 186 61zM799 1141q0 60 -33.5 96.5t-87.5 36.5q-65 0 -100 -42t-35 -118q0 -51 14.5 -101.5 t54.5 -140.5q85 57 136 121t51 148z" />
<glyph unicode="'" horiz-adv-x="464" d="M371 1278q0 -12 -2 -18l-90 -490h-95l-90 490q-2 8 -2 18q0 55 43 100t96 45q54 0 97 -44.5t43 -100.5z" />
<glyph unicode="(" horiz-adv-x="681" d="M625 -164l-50 -49q-153 117 -228.5 206t-131.5 218q-82 186 -82 418q0 229 80 418q54 129 129 220t229 214l54 -45q-68 -84 -101 -142.5t-61 -142.5q-57 -180 -57 -520q0 -314 43 -470.5t176 -324.5z" />
<glyph unicode=")" horiz-adv-x="681" d="M549 629q0 -232 -82 -418q-55 -129 -131 -218t-230 -206l-49 49q134 170 176.5 325t42.5 470q0 353 -63 536q-28 78 -59.5 132.5t-96.5 136.5l54 45q153 -122 228.5 -214t129.5 -220q80 -189 80 -418z" />
<glyph unicode="*" horiz-adv-x="909" d="M817 969l-18 -23q-131 53 -316 70q92 -160 164 -242l-4 -24q-72 -13 -174 -70l-31 14q0 157 -22 297q-50 -36 -106.5 -94.5t-100.5 -120.5l-39 17q-29 85 -80 143l8 14q138 36 281 109q-103 69 -283 121l-6 14q55 87 90 158h33q94 -111 209 -234q27 140 27 291l16 14 q84 -31 188 -45l11 -28q-81 -81 -168 -260q30 6 91.5 17t110.5 21.5t86 24.5l13 -6q-2 -18 -2 -41q0 -54 22 -137z" />
<glyph unicode="+" horiz-adv-x="1241" d="M1147 424h-438v-438h-177v438h-438v176h438v438h177v-438h438v-176z" />
<glyph unicode="," horiz-adv-x="512" d="M465 256q-55 -120 -118 -231.5t-183 -303.5l-146 -61l-30 27q67 135 111.5 274.5t56.5 249.5q170 44 274 78z" />
<glyph unicode="-" horiz-adv-x="681" d="M649 604q-48 -107 -65 -205h-535l-16 17q49 138 69 209h529z" />
<glyph unicode="." horiz-adv-x="512" d="M416 133q0 -63 -48.5 -110.5t-113.5 -47.5q-63 0 -110.5 47t-47.5 111q0 65 49 113.5t113 48.5q61 0 109.5 -49.5t48.5 -112.5z" />
<glyph unicode="/" horiz-adv-x="606" d="M625 1475l-459 -1510h-184l458 1510h185z" />
<glyph unicode="0" d="M958 713q0 -387 -111.5 -567.5t-350.5 -180.5q-224 0 -326 155t-102 498q0 189 23 315t75 216q116 203 379 203q229 0 329 -178q84 -148 84 -461zM713 516q0 206 -19.5 383.5t-50.5 243.5q-50 106 -141 106q-87 0 -133 -82q-31 -57 -43.5 -147t-12.5 -258 q0 -206 17.5 -364t48.5 -224q50 -106 143 -106q92 0 141.5 115t49.5 333z" />
<glyph unicode="1" d="M932 -6q-182 6 -363 6q-207 0 -415 -6v76l147 6q117 6 117 96v907v17v19t-0.5 16.5t-2.5 13.5t-5.5 9.5t-9 3.5t-13.5 -3l-287 -133q-28 74 -28 143q201 46 612 207l25 -20q-21 -301 -21 -521v-659q0 -90 117 -96l127 -6v-76z" />
<glyph unicode="2" d="M967 229q-6 -83 -6 -127q0 -59 4 -108q-237 6 -471 6q-222 0 -443 -6v104l342 340q240 240 240 469q0 105 -60 167.5t-161 62.5q-68 0 -127.5 -33.5t-71.5 -79.5l-37 -139l-76 6l37 338q88 66 164 94.5t166 28.5q191 0 313.5 -100t122.5 -255q0 -98 -55 -205.5 t-156 -207.5l-356 -351l4 -16l618 23z" />
<glyph unicode="3" d="M938 461q0 -135 -78.5 -249t-214 -180.5t-295.5 -66.5q-140 0 -254 49q-46 280 -51 305l70 19q33 -74 59 -113.5t62 -72.5q85 -72 194 -72q112 0 183 76t71 196q0 115 -70.5 184.5t-187.5 69.5q-70 0 -125 -16l-14 10l39 152h71q105 0 168.5 58.5t63.5 156.5 q0 85 -56 134.5t-153 49.5q-94 0 -152.5 -50.5t-87.5 -156.5h-71l63 316q89 51 158.5 71.5t154.5 20.5q161 0 266 -81.5t105 -207.5q0 -94 -55 -165.5t-174 -133.5q70 -8 109 -19.5t77 -35.5q125 -84 125 -248z" />
<glyph unicode="4" d="M969 -6q-156 6 -316 6q-181 0 -362 -6v76l131 6q57 3 87 41.5t30 109.5v111h-500l-14 80q88 220 205 431t296 472l250 55l15 -24l-13 -590v-256h180l3 -6v-162h-183v-111q0 -142 117 -151l74 -6v-76zM539 506v680q-29 -47 -51.5 -79.5t-41.5 -63.5t-61 -109l-127 -238 q-17 -31 -90 -190h371z" />
<glyph unicode="5" d="M967 485q0 -142 -78 -262t-213 -189t-295 -69q-127 0 -231 45q-11 60 -64 275l61 37q108 -238 318 -238q119 0 189.5 75.5t70.5 202.5q0 129 -74 206t-198 77q-132 0 -230 -82l-39 23q13 211 13 254v209q0 87 -13 278l15 16q213 -12 348 -12q63 0 153.5 3t149.5 6l59 3 l9 -16q-15 -67 -15 -115q0 -53 2 -86l-12 -22q-178 6 -293 6l-295 -6l-8 -318q89 40 145 55t121 15q186 0 295 -100.5t109 -270.5z" />
<glyph unicode="6" d="M961 453q0 -218 -123.5 -353t-321.5 -135q-222 0 -334 158q-50 71 -78 181.5t-28 236.5q0 432 305 667q101 77 195 109t235 35l80 -56l-31 -32q-18 2 -43 2q-111 0 -207 -50.5t-157 -142.5q-48 -71 -72.5 -162t-36.5 -243q73 94 140.5 132t158.5 38q146 0 232 -104 t86 -281zM719 350q0 140 -55 226t-144 86q-182 0 -182 -256q0 -155 54.5 -246.5t146.5 -91.5q86 0 133 74t47 208z" />
<glyph unicode="7" d="M1010 1245q-79 -125 -191 -352l-225 -459q-41 -83 -96.5 -223.5t-79.5 -216.5q-56 6 -113 6t-112 -6l-13 22l615 1061l-9 13h-460q-73 0 -97.5 -20t-31.5 -87l-17 -131h-80l2 184l-8 291l21 16l202 -4q110 -2 183 -4t91 -2.5t36.5 -1t31 -0.5h62.5l289 6v-92z" />
<glyph unicode="8" d="M956 416q0 -193 -136.5 -322t-340.5 -129q-181 0 -295 98.5t-114 253.5q0 217 239 338q-111 65 -158 138.5t-47 181.5q0 170 117.5 273.5t310.5 103.5q166 0 264.5 -79.5t98.5 -213.5q0 -86 -43.5 -151.5t-149.5 -137.5q63 -26 97.5 -49.5t68.5 -61.5q88 -101 88 -243z M731 307q0 87 -49 146t-164 110l-125 55q-80 -71 -110.5 -129t-30.5 -139q0 -120 73 -199t183 -79q95 0 159 67t64 168zM723 1026q0 98 -59 158.5t-154 60.5q-88 0 -141.5 -49.5t-53.5 -132.5q0 -73 45 -123t152 -96l90 -39q66 57 93.5 107t27.5 114z" />
<glyph unicode="9" d="M948 799q0 -270 -119.5 -477t-330.5 -299q-67 -30 -124 -41.5t-159 -16.5l-78 60l19 36q44 -6 63 -6q42 0 104 17t105 41q71 38 124.5 111t82.5 171q27 84 43 250l-129 -113q-57 -49 -150 -49q-161 0 -248.5 101.5t-87.5 289.5q0 221 119.5 349.5t325.5 128.5 q215 0 327.5 -142t112.5 -411zM688 909q0 162 -50 249t-144 87q-89 0 -139 -71.5t-50 -198.5q0 -146 55 -229.5t152 -83.5q91 0 133.5 60t42.5 187z" />
<glyph unicode=":" horiz-adv-x="512" d="M416 133q0 -63 -48.5 -110.5t-113.5 -47.5q-63 0 -110.5 47t-47.5 111q0 65 49 113.5t113 48.5q61 0 109.5 -49.5t48.5 -112.5zM416 768q0 -63 -48.5 -110.5t-113.5 -47.5q-63 0 -110.5 47t-47.5 111t49 113t113 49q61 0 109.5 -49.5t48.5 -112.5z" />
<glyph unicode=";" horiz-adv-x="512" d="M465 256q-55 -120 -118 -231.5t-183 -303.5l-146 -61l-30 27q67 135 111.5 274.5t56.5 249.5q170 44 274 78zM463 768q0 -63 -48.5 -110.5t-113.5 -47.5q-63 0 -110.5 47t-47.5 111t48.5 113t113.5 49q61 0 109.5 -49.5t48.5 -112.5z" />
<glyph unicode="&#x3c;" horiz-adv-x="1241" d="M1053 -4l-903 436v160l903 436v-197l-662 -319l662 -319v-197z" />
<glyph unicode="=" horiz-adv-x="1241" d="M1147 598h-1053v176h1053v-176zM1147 250h-1053v176h1053v-176z" />
<glyph unicode="&#x3e;" horiz-adv-x="1241" d="M1053 432l-903 -436v197l661 319l-661 319v197l903 -436v-160z" />
<glyph unicode="?" horiz-adv-x="909" d="M842 1085q0 -86 -32 -146t-114 -128l-157 -131q-127 -106 -127 -186q0 -36 18 -76l2 -4l-70 -29q-53 67 -53 152q0 54 29 110.5t100 143.5q72 87 100.5 141t28.5 108q0 72 -56 121t-140 49q-54 0 -96.5 -13.5t-51.5 -33.5l-63 -145l-72 18q58 176 66 273q81 55 149 76.5 t158 21.5q174 0 277.5 -87.5t103.5 -234.5zM557 133q0 -63 -48.5 -110.5t-111.5 -47.5q-64 0 -111.5 46.5t-47.5 109.5q0 65 48.5 114.5t112.5 49.5q61 0 109.5 -49.5t48.5 -112.5z" />
<glyph unicode="@" horiz-adv-x="1529" d="M1442 817q0 -107 -39.5 -207t-110.5 -174q-69 -69 -153.5 -112t-153.5 -43q-60 0 -96 43t-45 125q-67 -92 -117.5 -124t-124.5 -32q-114 0 -184 76.5t-70 199.5q0 118 58.5 224t156.5 169.5t207 63.5q136 0 166 -147l33 131h192l-151 -561q-26 -101 30 -101q71 0 164 113 q63 75 98 171t35 193q0 126 -69 230.5t-190 164.5t-267 60q-173 0 -312.5 -77t-218.5 -213t-79 -304q0 -170 80.5 -306t223 -213t320.5 -77q120 0 219 45q80 35 133.5 81t122.5 138h132q-44 -76 -76 -117t-80 -83q-203 -179 -473 -179q-149 0 -282 54.5t-228 147.5 t-151 222.5t-56 274.5q0 200 94.5 365.5t258.5 260.5t362 95q177 0 324.5 -76t232 -209t84.5 -293zM897 825q0 60 -25.5 98.5t-68.5 41.5q-58 4 -119 -67t-101 -182.5t-40 -219.5q0 -63 28 -103.5t72 -40.5q86 0 164 140q40 69 65 162.5t25 170.5z" />
<glyph unicode="A" horiz-adv-x="1593" d="M1550 -6q-164 6 -323 6q-156 0 -312 -6v76l109 6q19 1 29 14t10.5 31.5t-2.5 35t-8 31.5l-92 234h-515l-86 -229q-7 -24 -8.5 -49.5t14 -45.5t44.5 -22l102 -6v-76q-117 6 -231 6q-115 0 -232 -6v76l62 6q66 6 114 123l371 897l117 309h145l531 -1239q20 -44 44.5 -64 t67.5 -26l49 -6v-76zM913 537l-213 520l-204 -520h417z" />
<glyph unicode="B" horiz-adv-x="1366" d="M1251 442q0 -96 -49.5 -181t-128.5 -142.5t-178 -91t-199 -33.5q-144 6 -290 6q-130 0 -259 -6v47l66 37q23 12 32 38t9 79v917q0 50 -0.5 77t-4.5 52.5t-9 36t-18 19.5t-26.5 11.5t-39.5 4.5l-76 6v76q173 -6 344 -6q65 0 196.5 3t196.5 3q387 0 387 -277 q0 -124 -78 -196q-47 -44 -106 -74t-189 -76q122 -7 187 -24t121 -56q54 -38 83 -103t29 -147zM944 414q0 157 -81 228t-259 71h-61v-598q53 -9 88 -9q163 0 238 74t75 234zM901 1073q0 114 -57.5 166.5t-181.5 52.5q-54 0 -119 -8v-465h61q155 0 226 60.5t71 193.5z" />
<glyph unicode="C" horiz-adv-x="1478" d="M1423 1305q-21 -91 -47 -314h-80l-10 176q-84 77 -166 109.5t-198 32.5q-244 0 -384.5 -153t-140.5 -417q0 -290 163 -465.5t433 -175.5q201 0 400 105l24 -25l-45 -100q-114 -63 -216.5 -88t-244.5 -25q-379 0 -600 201t-221 545q0 329 227 520.5t615 191.5 q135 0 238 -20.5t241 -75.5z" />
<glyph unicode="D" horiz-adv-x="1705" d="M1610 770q0 -332 -213 -539q-115 -114 -276.5 -175.5t-344.5 -61.5q-53 0 -159.5 3t-159.5 3q-159 0 -318 -6v47l66 37q23 12 32 38.5t9 78.5v917q0 60 -2 90t-6 55t-17 34.5t-28 14t-46 7.5l-75 6v76q166 -6 331 -6q82 0 245 3t245 3q206 0 337.5 -40t221.5 -130 q158 -155 158 -455zM1303 713q0 299 -136 432q-150 147 -503 147q-64 0 -129 -8v-1167q70 -11 139 -11q172 0 287 35.5t192 110.5q150 150 150 461z" />
<glyph unicode="E" horiz-adv-x="1251" d="M1182 340l-23 -324l-10 -16q-117 -6 -287 -6q-77 0 -231.5 3t-231.5 3q-126 0 -252 -6v47l66 37q23 12 32 38t9 79v917q0 50 -0.5 77t-4.5 52.5t-9 36t-18 19.5t-26.5 11.5t-39.5 4.5l-76 6v76q193 -6 389 -6q81 0 241.5 3t241.5 3t195 -6l12 -15l-29 -291h-73l-17 154 q-1 17 -58 28t-142 11l-297 -6v-492q41 -4 137 -4h135q64 0 89 9t28 34l12 117h82q-6 -111 -6 -219q0 -110 6 -221h-82l-12 102q-5 40 -32 58t-85 18h-135q-52 0 -137 -6v-547l305 -6q70 0 137 11t70 23l47 193h80z" />
<glyph unicode="F" horiz-adv-x="1138" d="M1104 1374l-29 -291h-74l-16 154q-3 39 -227 39l-238 -6v-498q41 -4 137 -4h105q64 0 89 9t28 34l12 109h82q-6 -105 -6 -211q0 -111 6 -222h-82l-12 103q-5 40 -32 58t-85 18h-105q-37 0 -137 -7v-383q0 -51 0.5 -77t4.5 -51.5t8.5 -34.5t17.5 -17.5t26.5 -10t40.5 -3.5 l97 -6v-82q-169 6 -340 6q-159 0 -318 -6v82l76 6q21 2 32 3t23.5 5.5t17.5 8t11.5 16t8 22t3.5 34t2 45v60.5v836q0 50 -0.5 77t-4.5 52.5t-9 36t-18 19.5t-26.5 11.5t-39.5 4.5l-76 6v76q182 -6 365 -6q79 0 237.5 3t237.5 3q117 0 195 -6z" />
<glyph unicode="G" horiz-adv-x="1705" d="M1589 496q-56 -12 -70 -24.5t-14 -49.5v-334q-184 -69 -318 -96t-290 -27q-364 0 -582.5 203t-218.5 541q0 331 227.5 522.5t620.5 191.5q151 0 273.5 -22t261.5 -74l12 -22q-21 -91 -47 -314h-80l-10 176q-149 142 -420 142q-250 0 -390.5 -153t-140.5 -423 q0 -292 152 -472.5t399 -180.5q124 0 260 51v270q0 40 -25.5 56.5t-90.5 19.5l-109 4v84q147 -6 293 -6q154 0 307 6v-69z" />
<glyph unicode="H" horiz-adv-x="1705" d="M1630 -6q-159 6 -319 6q-159 0 -318 -6v82l76 6q21 2 32 3t23.5 5.5t17.5 8t11.5 16t8 22t3.5 34t2 45v60.5v390l-166 4h-299l-165 -4v-390v-60.5t2 -45t3.5 -34t8 -22t11.5 -16t17.5 -8t23.5 -5.5t32 -3l76 -6v-82q-159 6 -320 6q-158 0 -317 -6v82l76 6q21 2 32 3 t23.5 5.5t17.5 8t11.5 16t8 22t3.5 34t2 45v60.5v836v60.5t-2 45t-3.5 34.5t-7.5 22.5t-11.5 15.5t-18 8t-23.5 6t-32 3l-76 6v82q159 -6 317 -6q161 0 320 6v-82l-76 -6q-21 -2 -32 -3t-23.5 -6t-18 -8t-11.5 -15.5t-7.5 -22.5t-3.5 -34.5t-2 -45v-60.5v-324q47 -4 165 -4 h299q117 0 166 4v324v60.5t-2 45t-3.5 34.5t-7.5 22.5t-11.5 15.5t-18 8t-23.5 6t-32 3l-76 6v82q159 -6 318 -6q160 0 319 6v-82l-76 -6q-21 -2 -32 -3t-23.5 -6t-18 -8t-11.5 -15.5t-7.5 -22.5t-3.5 -34.5t-2 -45v-60.5v-836v-60.5t2 -45t3.5 -34t8 -22t11.5 -16t17.5 -8 t23.5 -5.5t32 -3l76 -6v-82z" />
<glyph unicode="I" horiz-adv-x="796" d="M717 -6q-159 6 -320 6q-158 0 -317 -6v82l76 6q21 2 32 3t23.5 5.5t17.5 8t11.5 16t8 22t3.5 34t2 45v60.5v836v60.5t-2 45t-3.5 34.5t-7.5 22.5t-11.5 15.5t-18 8t-23.5 6t-32 3l-76 6v82q159 -6 317 -6q161 0 320 6v-82l-76 -6q-21 -2 -32 -3t-23.5 -6t-18 -8 t-11.5 -15.5t-7.5 -22.5t-3.5 -34.5t-2 -45v-60.5v-836v-60.5t2 -45t3.5 -34t8 -22t11.5 -16t17.5 -8t23.5 -5.5t32 -3l76 -6v-82z" />
<glyph unicode="J" horiz-adv-x="796" d="M717 1313l-76 -6q-21 -2 -32 -3t-23.5 -6t-18 -8t-11.5 -15.5t-7.5 -22.5t-3.5 -34.5t-2 -45v-60.5v-831q0 -160 -12 -240t-46 -154q-65 -137 -193.5 -230t-252.5 -93q-28 0 -62 10v182l23 13q1 -1 8.5 -6t14.5 -11q71 -55 118 -55q62 0 87.5 60t25.5 206v1149v60.5 t-2 45t-3.5 34.5t-7.5 22.5t-11.5 15.5t-18 8t-23.5 6t-32 3l-76 6v82q159 -6 317 -6q161 0 320 6v-82z" />
<glyph unicode="K" horiz-adv-x="1593" d="M1563 -6q-105 6 -207 6q-104 0 -209 -6l-426 510q-82 100 -109 125.5t-69 50.5v-404v-60.5t2 -45t3.5 -34t8 -22t11.5 -16t17.5 -8t23.5 -5.5t32 -3l76 -6v-82q-159 6 -320 6q-158 0 -317 -6v82l76 6q21 2 32 3t23.5 5.5t17.5 8t11.5 16t8 22t3.5 34t2 45v60.5v836v60.5 t-2 45t-3.5 34.5t-7.5 22.5t-11.5 15.5t-18 8t-23.5 6t-32 3l-76 6v82q159 -6 317 -6q161 0 320 6v-82l-76 -6q-21 -2 -32 -3t-23.5 -6t-18 -8t-11.5 -15.5t-7.5 -22.5t-3.5 -34.5t-2 -45v-60.5v-410l403 396q193 193 193 245v52q92 -6 186 -6q95 0 186 6v-80 q-96 -7 -142 -21.5t-83 -48.5l-455 -424l545 -641q47 -55 88.5 -77.5t98.5 -24.5v-84z" />
<glyph unicode="L" horiz-adv-x="1251" d="M1182 356l-23 -340l-10 -16q-117 -6 -287 -6q-77 0 -231.5 3t-231.5 3q-126 0 -252 -6v47l66 37q23 12 32 38t9 79v917v60.5t-2 45t-3.5 34.5t-7.5 22.5t-11.5 15.5t-18 8t-23.5 6t-32 3l-76 6v82q159 -6 317 -6q161 0 320 6v-82l-76 -6q-21 -2 -32 -3t-23.5 -6t-18 -8 t-11.5 -15.5t-7.5 -22.5t-3.5 -34.5t-2 -45v-60.5v-993l313 -6q66 0 131 11t68 23l47 209h80z" />
<glyph unicode="M" horiz-adv-x="2048" d="M1982 -6q-159 6 -319 6q-158 0 -317 -6v82l75 6q28 2 41 3.5t27 10.5t18 17t8.5 34t4.5 51v78v852l-422 -878q-74 -152 -123 -270h-70q-28 68 -74 170l-471 980v-854q0 -50 0.5 -78t5 -53t9.5 -35t18 -18.5t26.5 -11t39.5 -4.5l76 -6v-76q-117 6 -234 6q-118 0 -235 -6 v76l75 6q26 2 39.5 4.5t26.5 11.5t18 19t9.5 35t5 52.5t0.5 77.5v836q0 60 -2 90t-6 55t-17 34.5t-28 14t-46 7.5l-75 6v76q123 -6 245 -6q123 0 246 6l154 -330l323 -676l375 774l100 232q117 -6 236 -6q117 0 237 6v-76l-75 -6q-31 -3 -46 -7.5t-28 -14t-17 -34.5t-6 -55 t-2 -90v-836v-78t4.5 -51t8.5 -34t18 -17t27 -10.5t41 -3.5l75 -6v-82z" />
<glyph unicode="N" horiz-adv-x="1705" d="M1634 1319l-75 -6q-31 -3 -46 -7.5t-28 -14t-17 -34.5t-6 -55t-2 -90v-930l6 -207l-14 -8l-168 27l-250 285l-667 802v-805q0 -51 0.5 -78t4.5 -52.5t9 -35.5t18 -18.5t26.5 -11t39.5 -4.5l76 -6v-76q-117 6 -234 6q-118 0 -235 -6v76l75 6q26 2 39.5 4.5t26.5 11.5 t18 19t9.5 35t5 52.5t0.5 77.5v836q0 60 -2 90t-6 55t-17 34.5t-28 14t-46 7.5l-75 6v76q123 -6 245 -6q86 0 172 6q173 -229 211 -273l639 -745v735q0 50 -0.5 77t-4.5 52.5t-9 36t-18 19.5t-26.5 11.5t-39.5 4.5l-76 6v76q117 -6 236 -6q116 0 233 6v-76z" />
<glyph unicode="O" horiz-adv-x="1705" d="M1612 709q0 -350 -205.5 -547t-572.5 -197q-352 0 -545 187t-193 528q0 352 206.5 547.5t578.5 195.5q347 0 539 -188t192 -526zM1305 666q0 174 -46 314.5t-131 223.5q-108 105 -266 105q-195 0 -315 -117q-69 -69 -106.5 -189t-37.5 -276q0 -177 46 -318t129 -223 q106 -106 270 -106q224 0 340.5 149t116.5 437z" />
<glyph unicode="P" horiz-adv-x="1251" d="M1217 1087q0 -186 -131.5 -310t-329.5 -124q-22 0 -119 15v80h37h37q97 0 154 73.5t57 196.5q0 274 -256 274q-76 0 -123 -18v-998q0 -51 0.5 -77t4.5 -51.5t8.5 -34.5t17.5 -17.5t26.5 -10t40.5 -3.5l96 -6v-82q-169 6 -338 6q-160 0 -319 -6v82l76 6q21 2 32 3 t23.5 5.5t17.5 8t11.5 16t8 22t3.5 34t2 45v60.5v836q0 50 -0.5 77t-4.5 52.5t-9 36t-18 19.5t-26.5 11.5t-39.5 4.5l-76 6v76q178 -6 354 -6q66 0 198 3t197 3q67 0 134.5 -20t124.5 -56.5t93 -97t36 -134.5z" />
<glyph unicode="Q" horiz-adv-x="1705" d="M1612 709q0 -399 -271 -598q-190 -142 -532 -142q-16 -2 -43 -2q133 -28 205 -53l246 -86q127 -45 219 -45q7 0 14 1t13 1.5t15.5 3t15 4.5t18 6t18.5 6t22.5 8t24.5 9l22 8v-76l-210 -131q-69 0 -148 21l-407 110q-91 25 -128 32t-75 7q-37 0 -81.5 -20.5t-117.5 -71.5 l-22 63q114 91 181 133t148 72q-136 17 -214 41.5t-152 73.5q-135 89 -206 240.5t-71 353.5q0 352 205.5 548.5t572.5 196.5q352 0 545 -186.5t193 -527.5zM1305 666q0 174 -46 314.5t-131 223.5q-108 105 -266 105q-195 0 -315 -117q-69 -69 -106.5 -189t-37.5 -276 q0 -177 46 -318t129 -223q106 -106 270 -106q224 0 340.5 149t116.5 437z" />
<glyph unicode="R" horiz-adv-x="1478" d="M1450 -6q-99 6 -199 6q-93 0 -184 -6l-430 700v47q114 0 178 39q63 37 99 103t36 147q0 125 -75 193.5t-211 68.5q-78 0 -121 -18v-998v-60.5t2 -45t3.5 -34t8 -22t11.5 -16t17.5 -8t23.5 -5.5t32 -3l76 -6v-82q-159 6 -320 6q-158 0 -317 -6v82l76 6q21 2 32 3t23.5 5.5 t17.5 8t11.5 16t8 22t3.5 34t2 45v60.5v836q0 50 -0.5 77t-4.5 52.5t-9 36t-18 19.5t-26.5 11.5t-39.5 4.5l-76 6v76q182 -6 364 -6q68 0 204 3t204 3q389 0 389 -301q0 -124 -88 -226q-43 -46 -88 -75.5t-129 -63.5l371 -561q32 -49 58.5 -65t84.5 -27v-82z" />
<glyph unicode="S" horiz-adv-x="1251" d="M1145 451q0 -223 -163.5 -354.5t-438.5 -131.5q-117 0 -214.5 21.5t-211.5 72.5q30 153 30 355h82l15 -181q49 -72 140.5 -114.5t195.5 -42.5q132 0 219.5 75t87.5 189q0 145 -170 197l-287 86q-145 43 -222 136t-77 224q0 207 143.5 323.5t399.5 116.5q194 0 379 -69 l10 -25q-29 -95 -29 -291h-84l-12 168q-116 113 -279 113q-123 0 -198.5 -66.5t-75.5 -173.5q0 -78 51.5 -127t165.5 -80l234 -61q309 -81 309 -360z" />
<glyph unicode="T" horiz-adv-x="1366" d="M1331 1384q-21 -128 -26 -325h-82l-11 141q-6 16 -11.5 26.5t-10 18.5t-12 12.5l-12.5 7.5t-17.5 3.5t-20.5 0.5t-27.5 -0.5t-33.5 -0.5h-240v-992v-78t4.5 -51t8.5 -34t18 -17t27 -10.5t41 -3.5l75 -6v-82q-159 6 -319 6q-158 0 -317 -6v82l75 6q28 2 41 3.5t27 10.5 t18 17t8.5 34t4.5 51v78v992h-240q-6 0 -31.5 0.5t-34 0t-27.5 -4t-27 -10.5t-16 -20.5t-9 -33.5l-11 -141h-82q-8 217 -26 325l12 11q320 -6 637 -6q318 0 635 6z" />
<glyph unicode="U" horiz-adv-x="1593" d="M1556 1319l-75 -6q-31 -3 -46 -7.5t-28 -14t-17 -34.5t-6 -55t-2 -90v-598q0 -278 -143 -413.5t-438 -135.5q-264 0 -419 107t-155 290v750q0 50 -0.5 77t-4.5 52.5t-9 36t-18 19.5t-26.5 11.5t-39.5 4.5l-76 6v76q159 -6 318 -6q160 0 319 6v-76l-76 -6 q-26 -2 -39.5 -4.5t-26.5 -11.5t-18 -19.5t-9 -36t-4.5 -52.5t-0.5 -77v-508q0 -160 16.5 -242.5t57.5 -132.5q80 -96 287 -96q203 0 288 88q53 54 75 144.5t22 252.5v494q0 60 -2 90t-6 55t-17 34.5t-28 14t-46 7.5l-76 6v76q117 -6 236 -6q116 0 233 6v-76z" />
<glyph unicode="V" horiz-adv-x="1593" d="M1563 1319l-66 -6q-32 -3 -54 -24.5t-42 -71.5l-426 -1020q-17 -38 -43 -109.5t-35 -93.5h-156l-489 1171q-32 79 -60.5 112t-66.5 36l-84 6v76q163 -6 324 -6q165 0 331 6v-76l-102 -6q-21 -1 -37 -13t-16 -26q0 -30 6 -52t37 -96l321 -792l291 723q64 162 64 203 q0 47 -76 53l-94 6v76q117 -6 235 -6t238 6v-76z" />
<glyph unicode="W" horiz-adv-x="2048" d="M2023 1319l-67 -6q-26 -3 -47 -37t-41 -105l-250 -884l-68 -293h-149q-10 26 -36 100t-42 115l-305 768l-318 -727l-96 -256h-143l-285 1233q-17 80 -76 86l-65 6v76q159 -6 319 -6q137 0 275 6v-76l-86 -6q-25 -1 -43.5 -16.5t-18.5 -34.5q0 -27 6 -54l168 -784l308 727 q32 76 45.5 109t26 64.5t32.5 80.5h92q62 -178 101 -272l280 -703l199 774q8 31 8 62q0 44 -72 47l-94 6v76q108 -6 217 -6q111 0 225 6v-76z" />
<glyph unicode="X" horiz-adv-x="1366" d="M1331 -6q-99 6 -194 6q-98 0 -197 -6l-305 545l-287 -412q-25 -38 -74 -127h-239v70l63 6q18 1 37.5 12t30.5 25l407 534l-192 340q-38 68 -89.5 141t-86.5 111q-37 37 -84 37q-26 0 -66 -12l-10 84l375 75q44 -34 75 -72.5t74 -113.5l195 -346l338 498h227v-70l-57 -6 q-30 -3 -47.5 -16.5t-50.5 -57.5l-349 -459q179 -310 300 -519l30 -51l-2 1q44 -76 69 -103.5t58 -31.5l51 -6v-76z" />
<glyph unicode="Y" horiz-adv-x="1366" d="M1352 1350l-361 -535q-50 -75 -108 -205v-334v-60.5t2 -45t3.5 -34t8 -22t11.5 -16t17.5 -8t23.5 -5.5t32 -3l76 -6v-82q-159 6 -320 6q-158 0 -317 -6v82l76 6q21 2 32 3t23.5 5.5t17.5 8t11.5 16t8 22t3.5 34t2 45v60.5v285q-49 109 -90 174l-207 334 q-80 130 -132 167.5t-134 37.5v76l325 73q71 -42 122 -102t112 -176l219 -416l385 660h158v-39z" />
<glyph unicode="Z" horiz-adv-x="1366" d="M1284 356q-30 -170 -33 -362q-292 6 -581 6q-310 0 -621 -6v78q133 169 213 284l627 914h-455q-109 0 -139 -15.5t-39 -78.5l-16 -113h-76v332q279 -6 557 -6q279 0 555 6v-72q-102 -124 -170 -225l-666 -981h566q78 0 117.5 19.5t47.5 60.5l31 159h82z" />
<glyph unicode="[" horiz-adv-x="681" d="M596 -213q-186 4 -305 4l-141 -4q12 237 12 598v449q0 172 -3 332t-6 234l-3 75q86 -5 141 -5l305 5v-78h-100q-77 0 -115 -45q-9 -12 -11.5 -49t-2.5 -154v-1051q0 -120 1.5 -145t8.5 -37q12 -22 46.5 -36.5t72.5 -14.5h100v-78z" />
<glyph unicode="\" horiz-adv-x="1241" d="M1094 0h-185l-762 1475h185z" />
<glyph unicode="]" horiz-adv-x="681" d="M532 -213q-86 4 -141 4l-305 -4v78h100q38 0 72.5 14.5t46.5 36.5q7 12 8.5 37t1.5 145v1051q0 117 -2.5 154t-11.5 49q-38 45 -115 45h-100v78q186 -5 305 -5l141 5q-12 -255 -12 -641v-449q0 -161 3 -310.5t6 -218.5z" />
<glyph unicode="^" horiz-adv-x="1241" d="M1135 563h-195l-319 602l-320 -602h-195l422 826h185z" />
<glyph unicode="_" d="M1024 -256h-1024v102h1024v-102z" />
<glyph unicode="`" horiz-adv-x="681" d="M522 1036h-114l-285 176q-50 31 -69 55.5t-19 57.5q0 41 25 65.5t65 24.5q66 0 133 -76z" />
<glyph unicode="a" d="M979 -6q-88 6 -180 6q-95 0 -187 -6l-10 16l10 127l-190 -147q-31 -25 -100 -25q-117 0 -178.5 65t-61.5 189q0 130 78 198.5t272 108.5l180 37q-4 126 -55 184t-154 58q-41 0 -77 -9t-41 -20l-45 -102l-62 14v141l109 66q116 70 245 70q155 0 241.5 -77t86.5 -212v-475 q0 -72 11.5 -97t46.5 -28l61 -6v-76zM612 236v241l-92 -24q-109 -29 -148.5 -67.5t-39.5 -113.5q0 -60 27.5 -94.5t76.5 -34.5q45 0 95 26.5t81 66.5z" />
<glyph unicode="b" horiz-adv-x="1251" d="M1139 575q0 -118 -46.5 -227t-123.5 -172q-89 -73 -234 -160q-86 -51 -178 -51q-128 0 -268 76l-80 -66l-45 17q18 163 18 340v831q0 91 -9.5 116.5t-43.5 27.5l-109 6v73q155 16 248 44l148 45l16 -13v-678l125 101q54 43 102.5 61.5t108.5 18.5q163 0 267 -110 t104 -280zM881 453q0 154 -67 240.5t-185 86.5q-129 0 -197 -102v-461q80 -113 207 -113q112 0 177 94.5t65 254.5z" />
<glyph unicode="c" horiz-adv-x="909" d="M848 129l-43 -94q-132 -70 -275 -70q-221 0 -337.5 129.5t-116.5 374.5q0 133 55.5 220t192.5 169l106 64q73 43 184 43q56 0 98.5 -8t112.5 -33l15 -27q-27 -134 -41 -289h-74l-14 123q-5 36 -58 62t-123 26q-98 0 -149 -72t-51 -212q0 -197 86.5 -310.5t238.5 -113.5 q80 0 174 39z" />
<glyph unicode="d" horiz-adv-x="1251" d="M1182 -6q-105 6 -207 6q-93 0 -184 -6l-11 16l11 154l-213 -174q-31 -25 -101 -25q-180 0 -285.5 129.5t-105.5 349.5q0 259 172 371l148 96q85 54 180 54q77 0 164 -35l41 -17v250q0 90 -10 116t-44 28l-108 6v73q155 16 248 44l147 45l16 -13v-1257q0 -82 13 -105 t61 -26l68 -4v-76zM791 328v377q-100 129 -230 129q-217 0 -217 -312q0 -166 64.5 -264t173.5 -98q85 0 147 49.5t62 118.5z" />
<glyph unicode="e" d="M944 498q-165 -41 -323 -41h-269q3 -74 14 -118t37 -87q38 -64 107.5 -102.5t146.5 -38.5q63 0 116.5 15.5t125.5 55.5l25 -30l-45 -99q-100 -51 -167.5 -69.5t-156.5 -18.5q-230 0 -349.5 127t-119.5 371q0 147 46.5 242t148.5 155l96 58q78 47 178 47q178 0 283.5 -98 t105.5 -263v-106zM684 565q0 151 -40.5 218t-129.5 67q-90 0 -132 -67t-42 -218l66 -2q32 -1 52 -2t24.5 -1.5t8 -0.5h6h15.5z" />
<glyph unicode="f" horiz-adv-x="796" d="M780 1264l-32 -15q-46 29 -75.5 39t-62.5 10q-70 0 -95.5 -39.5t-25.5 -148.5v-221q149 0 269 8l8 -16l-23 -119h-254v-557q0 -63 7 -94q5 -15 31 -25.5t65 -11.5l92 -4v-76q-164 6 -328 6q-142 0 -286 -6v76l84 4q57 3 71.5 25t14.5 106v557l-162 -10v49q99 48 162 92 v88q0 123 19 171t93 110l152 127q58 49 99 67.5t91 18.5q29 0 86 -13v-198z" />
<glyph unicode="g" horiz-adv-x="1138" d="M1096 -86q0 -204 -166 -331.5t-434 -127.5q-203 0 -323 79t-120 212q0 41 15 77.5t38 49.5l166 98q-76 20 -107.5 51t-31.5 87q0 31 10 59.5t25 38.5l145 110q-54 19 -83 36t-58 48q-76 82 -76 197q0 161 124.5 264t320.5 103q190 0 311 -88q49 -3 74 -3q52 0 168 11 l-11 -131l-157 8q10 -49 10 -96q0 -148 -90 -238q-63 -63 -157 -97t-200 -34q-7 0 -81 4q-60 -37 -60 -80q0 -64 96 -61l299 8h50q155 0 229 -62.5t74 -191.5zM684 612q0 122 -43 186t-125 64q-168 0 -168 -225q0 -115 46 -180.5t126 -65.5q164 0 164 221zM868 -195 q0 67 -26.5 101.5t-91.5 48.5t-193 14q-162 0 -207 -22q-46 -22 -75 -70.5t-29 -105.5q0 -95 83.5 -154t219.5 -59q137 0 228 70.5t91 176.5z" />
<glyph unicode="h" horiz-adv-x="1251" d="M1202 -6q-105 6 -207 6q-93 0 -184 -6v557q0 124 -46 180.5t-147 56.5q-68 0 -121 -42.5t-53 -96.5v-444q0 -82 13 -105t61 -26l72 -4v-76q-138 6 -277 6q-132 0 -264 -6v76l72 4q48 3 61 26t13 105v958q0 91 -9.5 116t-44.5 28l-92 6v73q148 19 232 44l147 45l16 -13 v-663l164 127q48 39 144 39q154 0 237 -86q40 -43 56 -108.5t16 -184.5v-381q0 -82 13 -105t61 -26l67 -4v-76z" />
<glyph unicode="i" horiz-adv-x="681" d="M610 -6q-138 6 -276 6q-132 0 -264 -6v76l71 4q48 3 61 26t13 105v448q0 91 -9 116t-44 28l-92 6v74l30 4q107 15 201 39q25 6 61 17.5t59 19.5l23 8l21 -13v-747q0 -82 13 -105t61 -26l71 -4v-76zM477 1227q0 -57 -40 -97t-97 -40t-97 40.5t-40 98.5q0 56 40.5 95.5 t98.5 39.5q55 0 95 -40.5t40 -96.5z" />
<glyph unicode="j" horiz-adv-x="681" d="M465 201q0 -236 -23.5 -360.5t-85.5 -215.5q-55 -82 -124.5 -126t-141.5 -44q-35 0 -63 4l-21 72l8 12h47q83 0 118.5 88t35.5 291v731q0 91 -9 116t-44 28l-92 6v74l36 4q100 10 195 39l143 45l21 -13v-751zM477 1227q0 -57 -40 -97t-97 -40t-97 40.5t-40 98.5 q0 56 40.5 95.5t98.5 39.5q55 0 95 -40.5t40 -96.5z" />
<glyph unicode="k" horiz-adv-x="1251" d="M1223 0h-353q-21 26 -55 67.5t-43 52t-31.5 38.5t-26.5 32.5t-23.5 27.5t-26 30t-30 34t-40 45.5t-51.5 58t-68 77.5h-20v-258q0 -83 12.5 -105.5t60.5 -25.5l72 -4v-76q-138 6 -276 6q-133 0 -265 -6v76l72 4q48 3 61 26t13 105v958q0 91 -9.5 116.5t-43.5 27.5l-109 6 v73q155 16 248 44l147 45l17 -13v-952q143 122 217 199l219 231h266v-78h-63q-50 0 -99 -37q-57 -42 -128.5 -101.5t-114.5 -98.5l-43 -39l401 -451q54 -59 113 -65v-70z" />
<glyph unicode="l" horiz-adv-x="681" d="M606 -6q-138 6 -276 6q-132 0 -264 -6v76l71 4q48 3 61 26t13 105v958q0 91 -9.5 116.5t-43.5 27.5l-109 6v73q155 16 248 44l147 45l17 -13v-1257q0 -82 13 -105t61 -26l71 -4v-76z" />
<glyph unicode="m" horiz-adv-x="1820" d="M1769 -6q-102 6 -200 6q-97 0 -191 -6v557q0 237 -176 237q-61 0 -113.5 -44t-52.5 -95v-444q0 -82 13 -105t61 -26l72 -4v-76q-135 6 -269 6q-132 0 -264 -6v76l64 4q49 3 61 25t12 106v346q0 237 -176 237q-61 0 -113.5 -44t-52.5 -95v-444q0 -84 12.5 -106t61.5 -25 l55 -4v-76q-129 6 -260 6q-132 0 -264 -6v76l72 4q48 3 61 26t13 105v448q0 91 -9.5 116t-44.5 28l-92 6v74q86 5 156 20.5t227 67.5l12 -13v-153l164 127q51 39 146 39q106 0 170.5 -39.5t99.5 -126.5l164 127q51 39 147 39q164 0 228.5 -83.5t64.5 -295.5v-381 q0 -82 13 -105t61 -26l67 -4v-76z" />
<glyph unicode="n" horiz-adv-x="1251" d="M1202 -6q-105 6 -207 6q-93 0 -184 -6v559q0 123 -46 179t-147 56q-68 0 -121 -42.5t-53 -96.5v-444q0 -82 13 -105t61 -26l72 -4v-76q-138 6 -277 6q-132 0 -264 -6v76l72 4q48 3 61 26t13 105v448q0 91 -9.5 116t-44.5 28l-92 6v74q86 5 156 20.5t227 67.5l12 -13v-153 l164 127q48 39 144 39q154 0 237 -86q40 -43 56 -108.5t16 -184.5v-381q0 -82 13 -105t61 -26l67 -4v-76z" />
<glyph unicode="o" horiz-adv-x="1138" d="M1059 483q0 -249 -133 -383.5t-379 -134.5q-223 0 -344 129t-121 365q0 245 131 375.5t375 130.5q227 0 349 -124.5t122 -357.5zM780 420q0 226 -53.5 336t-163.5 110q-106 0 -154.5 -86t-48.5 -272q0 -445 224 -445q104 0 150 84.5t46 272.5z" />
<glyph unicode="p" horiz-adv-x="1251" d="M1161 586q0 -139 -54 -255t-155 -192q-25 -20 -34 -26q-104 -83 -166 -115.5t-115 -32.5q-61 0 -182 35v-317q0 -83 13 -107t60 -25l93 -4v-75q-147 6 -297 6q-133 0 -265 -6v75l72 4q48 3 61 26t13 106v970q0 91 -9 116t-44 28l-93 6v74l23 2q119 11 209 41l143 45 l21 -13v-168l125 101q54 43 102.5 61.5t108.5 18.5q160 0 265 -108t105 -271zM903 453q0 154 -67 240.5t-185 86.5q-129 0 -196 -102v-461q80 -113 207 -113q112 0 176.5 94t64.5 255z" />
<glyph unicode="q" horiz-adv-x="1251" d="M1206 -528q-138 6 -276 6q-132 0 -264 -6v75l71 4q48 3 61 26t13 106v471l-197 -158q-39 -31 -122 -31q-178 0 -282 126t-104 343q0 152 53 242.5t187 165.5q123 69 192.5 96t123.5 27q94 0 237 -70l45 -23l107 86l43 -28q-33 -160 -33 -266v-981q0 -83 13 -106t61 -26 l71 -4v-75zM811 328v377q-100 129 -229 129q-217 0 -217 -312q0 -166 64 -264t173 -98q85 0 147 49.5t62 118.5z" />
<glyph unicode="r" horiz-adv-x="796" d="M797 952l-11 -264l-49 -20q-43 73 -116 73q-60 0 -112 -42t-52 -89v-405q0 -86 16 -107t82 -24l80 -4v-76q-153 6 -309 6q-133 0 -265 -6v76l72 4q48 3 61 26t13 105v448q0 91 -9 116t-44 28l-93 6v74q153 19 232 43l143 45l21 -13v-194l90 98q59 63 95 86t79 23t76 -13z " />
<glyph unicode="s" horiz-adv-x="909" d="M829 317q0 -158 -119 -255t-313 -97q-149 0 -317 58l14 288h80l10 -141q89 -107 230 -107q87 0 137.5 43t50.5 115q0 54 -29 83t-100 46l-176 43q-217 53 -217 256q0 154 109.5 235t316.5 81q81 0 136.5 -10.5t115.5 -36.5l-17 -250h-73l-21 118q-4 31 -59.5 55.5 t-118.5 24.5q-84 0 -132 -35.5t-48 -97.5q0 -49 26 -75t86 -40l168 -36q138 -31 199 -93t61 -172z" />
<glyph unicode="t" horiz-adv-x="681" d="M664 123l-101 -121q-29 -37 -133 -37q-133 0 -193.5 61.5t-60.5 198.5v531l-131 -8v45l135 88v123q0 43 -8 188q168 63 250 102l29 -20q-25 -142 -25 -279v-118q116 0 233 12l-16 -133h-217v-488q0 -75 27.5 -104t99.5 -29q36 0 94 27z" />
<glyph unicode="u" horiz-adv-x="1251" d="M1194 -6q-105 6 -207 6q-95 0 -194 -6l10 170l-156 -152q-47 -47 -141 -47q-149 0 -229 83.5t-80 238.5v366q0 91 -9.5 116t-44.5 28l-92 6v74q148 18 232 43l143 45l20 -13v-534q0 -148 36 -208t124 -60q82 0 139.5 54t57.5 130v319q0 91 -9 116t-44 28l-93 6v74 q150 19 232 43l143 45l21 -13v-747q0 -84 12 -106t61 -25l68 -4v-76z" />
<glyph unicode="v" horiz-adv-x="1138" d="M1116 862l-61 -10q-26 -4 -42.5 -20t-31.5 -50l-262 -589q-31 -69 -78 -199h-176l-293 737q-26 66 -49 96t-49 31l-51 4v78q132 -6 266 -6q132 0 264 6v-78l-84 -4q-47 -3 -47 -35q0 -30 29 -104l180 -453l71 164l125 309q19 49 19 84q0 14 -13 24t-34 11l-78 4v78 q99 -6 199 -6q97 0 196 6v-78z" />
<glyph unicode="w" horiz-adv-x="1705" d="M1679 862l-69 -4q-22 -1 -38.5 -23t-35.5 -73l-188 -533q-25 -73 -43 -131.5t-23 -81.5l-6 -22h-166l-270 629q-118 -233 -161.5 -330t-119.5 -299h-162l-219 786q-12 42 -30.5 59.5t-53.5 18.5l-67 4v78q138 -6 278 -6q139 0 277 6v-78l-97 -4q-17 0 -28 -12.5 t-11 -32.5q0 -19 5 -39l120 -465l117 256l178 400h103l282 -650q51 136 80 230l74 231q6 24 6 39q0 18 -16 29.5t-43 13.5l-86 4v78q105 -6 207 -6q101 0 206 6v-78z" />
<glyph unicode="x" d="M989 -6q-80 6 -158 6q-79 0 -159 -6l-205 346l-131 -180l-107 -160h-186v70q48 3 80 19t61 54l226 287l-164 279q-40 68 -73.5 93t-84.5 25q-21 0 -31 -2l-16 74q133 25 299 66q62 -50 127 -158l106 -174l222 307h194v-76q-57 -1 -85 -16.5t-75 -71.5l-198 -233l182 -312 q52 -88 90 -122t86 -39v-76z" />
<glyph unicode="y" horiz-adv-x="1138" d="M1118 862l-53 -10q-45 -9 -84 -96l-408 -949q-78 -181 -165.5 -266.5t-194.5 -85.5q-73 0 -150 35l37 195l23 8q67 -76 143 -76q53 0 103.5 49.5t85.5 136.5l47 115l-324 827q-23 59 -43 85.5t-43 27.5l-72 4v78q135 -6 273 -6q135 0 270 6v-78l-71 -4q-24 -2 -39 -14.5 t-15 -32.5q0 -16 5.5 -34t16 -42.5t13.5 -32.5l172 -446l207 516q8 20 8 45q0 17 -15 28t-40 13l-68 4v78q95 -6 191 -6q95 0 190 6v-78z" />
<glyph unicode="z" d="M950 317q-24 -168 -24 -313l-11 -10q-279 6 -559 6q-160 0 -323 -6v67l213 279l348 487h-242q-86 0 -116 -23t-39 -97l-7 -52h-77l6 275q1 1 2 1.5t5 3t5 2.5t2 -1q243 -6 483 -6q158 0 314 6v0v0v-1v0v-1v-1v-1v-1v-1v-1v-1v-1v-1v-1v-1v-1v-1v-2v-1v-1v-1v-1v-2v-1v-1 v-2v-1v-1v-2v-1v-2v-1v-2v-1v-2v-1v-2v-2v-1v-2v-1v-2v-2v-2v-1v-2v-2v-9l-549 -755h334q74 0 102 27t41 114l10 63h82z" />
<glyph unicode="{" horiz-adv-x="634" d="M590 -240q-125 0 -188.5 10.5t-106.5 36.5q-98 61 -98 226v356q0 111 -35 153.5t-152 73.5v5q117 31 152 73.5t35 153.5v364q0 165 98 226q43 26 106.5 36.5t188.5 10.5v-4q-117 -32 -156 -80.5t-39 -159.5v-362q0 -125 -42.5 -178.5t-166.5 -82.5q124 -28 166.5 -83 t42.5 -189v-342q0 -111 39 -159.5t156 -80.5v-4z" />
<glyph unicode="|" horiz-adv-x="1241" d="M709 -213h-177v1688h177v-1688z" />
<glyph unicode="}" horiz-adv-x="634" d="M625 616q-117 -31 -152 -73.5t-35 -153.5v-356q0 -165 -98 -226q-43 -26 -106.5 -36.5t-188.5 -10.5v4q117 32 156 80.5t39 159.5v342q0 135 42 189.5t167 82.5q-124 29 -166.5 82.5t-42.5 178.5v362q0 111 -39 159.5t-156 80.5v4q136 0 205.5 -14.5t111.5 -49.5 q76 -64 76 -209v-364q0 -111 35 -153.5t152 -73.5v-5z" />
<glyph unicode="~" horiz-adv-x="1241" d="M1137 588q-72 -123 -140 -177.5t-151 -54.5q-42 0 -84 13t-139 55q-104 45 -148 59.5t-76 14.5q-49 0 -86.5 -30t-83.5 -106l-125 80q72 123 140 177.5t151 54.5q42 0 84 -13t139 -55q104 -45 148 -59.5t76 -14.5q49 0 86.5 30t83.5 106z" />
<glyph unicode="&#xa1;" horiz-adv-x="569" d="M440 797q0 -65 -48.5 -113.5t-112.5 -48.5q-61 0 -109.5 49.5t-48.5 112.5t48.5 110t113.5 47q63 0 110 -46.5t47 -110.5zM430 -389l-205 -90h-104q0 84 14 196l103 762l77 43l11 -16l96 -733q6 -52 8 -162z" />
<glyph unicode="&#xa2;" d="M922 131l-43 -96l-9 -8q-136 -62 -258 -62q-10 0 -120 10l-21 2l-65 -194h-87l74 217q-128 65 -185.5 168.5t-57.5 269.5q0 158 59 264q18 31 46 57t85 62l106 68q134 83 242 86l53 160h84l-51 -166q80 -19 129 -41l10 -19q-26 -120 -36 -303h-78l-13 123q-2 20 -21 41 t-42 27l-186 -619q43 -35 88 -50t108 -15q51 0 87.5 9t82.5 32zM641 819q-16 2 -43 2q-197 0 -197 -282q0 -82 15.5 -144.5t54.5 -140.5z" />
<glyph unicode="&#xa3;" d="M1026 365l-20 -367q-91 -31 -170 -31q-140 0 -332 53q-165 46 -273 46q-41 0 -104 -52q-46 -41 -90 -53l-41 121l131 106q40 32 56.5 75.5t23.5 123.5t10 268h-184v88h184v88q0 167 113 295q92 106 238.5 182t258.5 76q88 0 156 -55l-20 -278h-64l-6 71q-4 58 -49.5 92.5 t-116.5 34.5q-110 0 -162 -68.5t-65 -232.5l-17 -205h344v-88h-354q-29 -150 -83.5 -258.5t-149.5 -206.5q128 39 213 39q51 0 198 -22q129 -19 180 -19q41 0 69 17t34 45l22 115h70z" />
<glyph unicode="&#xa4;" d="M958 991l-94 -98q80 -105 80 -250q0 -141 -82 -256l94 -98l-92 -92l-96 100q-58 -46 -117.5 -67t-138.5 -21q-149 0 -256 86l-98 -98l-92 92l100 100q-46 59 -66 117t-20 135q0 80 20 139t66 111l-100 100l96 96l98 -98q112 84 254 84q137 0 246 -82l98 101zM786 643 q0 114 -80 193t-196 79q-110 0 -191 -82t-81 -194q0 -113 81 -193.5t195 -80.5q113 0 192.5 81.5t79.5 196.5z" />
<glyph unicode="&#xa5;" d="M989 1350l-276 -568h241v-82h-274q-31 -66 -31 -118v-78h305v-82h-305v-146q0 -138 9 -163t63 -31l53 -6v-82q-111 6 -223 6q-119 0 -236 -6v82l54 6q52 6 61.5 31.5t9.5 162.5v146h-305v82h305v82q0 33 -39 98q-8 11 -10 16h-256v82h221l-129 287q-55 124 -95.5 165.5 t-96.5 39.5v76l235 73q49 -40 85 -99t83 -179l164 -416l272 660h115v-39z" />
<glyph unicode="&#xa6;" horiz-adv-x="1241" d="M709 799h-177v676h177v-676zM709 -213h-177v676h177v-676z" />
<glyph unicode="&#xa7;" d="M965 535q0 -89 -30.5 -150.5t-115.5 -148.5q61 -46 87 -95t26 -118q0 -122 -70 -230t-187 -172.5t-249 -64.5q-102 0 -172.5 20t-153.5 72l29 317h80q-2 -18 -2 -41q0 -64 18 -131q103 -112 269 -112q108 0 191 67t83 154q0 67 -57 118q-56 48 -219 101l-125 41 q-168 56 -237 126.5t-69 188.5q0 74 27 129t94 119l39 37q-96 83 -96 201q0 85 44 181.5t110 158.5q60 55 147.5 87.5t175.5 32.5q126 0 266 -67q-21 -106 -34 -301h-78q0 99 -15 164q-28 29 -83 46t-123 17q-116 0 -191.5 -54.5t-75.5 -137.5q0 -74 54.5 -117.5 t203.5 -87.5l138 -41l8 -2q157 -40 225 -111.5t68 -195.5zM813 410q0 75 -54.5 125.5t-180.5 93.5l-293 98q-72 -87 -72 -154q0 -55 63.5 -103t204.5 -101l273 -101q59 78 59 142z" />
<glyph unicode="&#xa8;" horiz-adv-x="681" d="M698 1227q0 -57 -40 -97t-97 -40t-97 40.5t-40 98.5q0 56 40.5 95.5t98.5 39.5q55 0 95 -40.5t40 -96.5zM258 1227q0 -57 -40 -97t-97 -40t-97 40t-40 97t40.5 97t98.5 40q55 0 95 -40.5t40 -96.5z" />
<glyph unicode="&#xa9;" horiz-adv-x="1529" d="M1491 690q0 -196 -97.5 -362.5t-264.5 -263.5t-363 -97t-362.5 97t-263.5 263.5t-97 362.5t97 363t263.5 264.5t362.5 97.5t363 -97.5t264.5 -264.5t97.5 -363zM1393 690q0 170 -84 314.5t-228.5 228.5t-314.5 84t-314 -84t-227.5 -228.5t-83.5 -314.5q0 -127 49.5 -243 t133 -199.5t199 -132.5t243.5 -49q102 0 197.5 31.5t173 89t135.5 134t89.5 172t31.5 197.5zM1163 1012q-11 -43 -28 -174h-62l-6 96q-46 38 -91.5 54t-109.5 16q-134 0 -210 -78.5t-76 -212.5q0 -147 88.5 -237.5t238.5 -90.5q118 0 232 57l22 -20l-31 -62 q-66 -34 -126.5 -47.5t-143.5 -13.5q-227 0 -359 107t-132 292q0 177 135 279t366 102q78 0 139 -11t144 -40z" />
<glyph unicode="&#xaa;" horiz-adv-x="897" d="M739 770q-19 0 -56 1t-60 1q-24 0 -62.5 -1t-58.5 -1l-6 8l6 78l-123 -90q-21 -14 -64 -14q-77 0 -117 39t-40 114q0 59 25 94t85 58q57 22 117 33l117 20q-3 55 -21 88q-13 25 -45.5 43t-60.5 16q-7 0 -13 -2l-73 -16l-29 -61l-45 8v80l158 75q26 11 67 11 q107 0 165.5 -47.5t58.5 -133.5v-303q0 -25 8 -36.5t28 -12.5l39 -4v-45zM502 913v146l-60 -15q-69 -17 -96 -40.5t-27 -67.5q0 -35 18.5 -56.5t49.5 -21.5q63 0 115 55zM739 590h-581v98h581v-98z" />
<glyph unicode="&#xab;" d="M535 131l-56 -41q-250 255 -405 383v51q277 243 405 373l56 -45l-226 -354zM948 131l-55 -41q-245 251 -406 383v51q284 249 406 373l55 -45l-225 -354z" />
<glyph unicode="&#xac;" horiz-adv-x="1241" d="M1147 774v-436h-176v260h-877v176h1053z" />
<glyph unicode="&#xad;" horiz-adv-x="681" d="M649 604q-48 -107 -65 -205h-535l-16 17q49 138 69 209h529z" />
<glyph unicode="&#xae;" horiz-adv-x="1529" d="M1491 690q0 -196 -97.5 -362.5t-264.5 -263.5t-363 -97t-362.5 97t-263.5 263.5t-97 362.5t97 363t263.5 264.5t362.5 97.5t363 -97.5t264.5 -264.5t97.5 -363zM1393 690q0 170 -84 314.5t-228.5 228.5t-314.5 84t-314 -84t-227.5 -228.5t-83.5 -314.5q0 -127 49.5 -243 t133 -199.5t199 -132.5t243.5 -49q102 0 197.5 31.5t173 89t135.5 134t89.5 172t31.5 197.5zM1165 373v-60q-78 4 -118 4q-39 0 -117 -4l-244 371v39q63 0 98 16q34 19 54 53t20 74q0 54 -44.5 91.5t-104.5 37.5q-38 0 -54 -6v-518q0 -20 1 -33t4.5 -28.5t12.5 -23.5t23 -9 l47 -4v-60q-126 4 -188 4t-188 -4v60l49 4q41 2 41 94v438q0 95 -41 97l-49 4v57q108 -6 215 -6q39 0 117.5 3t117.5 3q97 0 168.5 -45t71.5 -123q0 -67 -51 -121q-41 -41 -121 -73l209 -289q29 -37 71 -43z" />
<glyph unicode="&#xaf;" horiz-adv-x="681" d="M680 1155h-678v145h678v-145z" />
<glyph unicode="&#xb0;" horiz-adv-x="819" d="M717 1044q0 -127 -90.5 -217t-216.5 -90q-128 0 -218 90t-90 217q0 129 90.5 218.5t221.5 89.5q123 0 213 -91.5t90 -216.5zM592 1044q0 74 -54.5 128.5t-127.5 54.5q-76 0 -129.5 -52.5t-53.5 -127.5q0 -76 54 -130.5t129 -54.5t128.5 53.5t53.5 128.5z" />
<glyph unicode="&#xb1;" horiz-adv-x="1241" d="M1147 600h-438v-266h-177v266h-438v176h438v438h177v-438h438v-176zM1147 0h-1053v176h1053v-176z" />
<glyph unicode="&#xb2;" horiz-adv-x="614" d="M588 530q-112 1 -173.5 3t-113.5 2h-54.5t-26.5 -0.5t-60 -2t-135 -2.5v72l206 203q142 139 142 272q0 58 -34 92.5t-91 34.5q-38 0 -72 -18t-41 -43l-24 -86l-58 4l23 209q57 41 103.5 58.5t101.5 17.5q117 0 192.5 -61t75.5 -155q0 -123 -129 -249l-211 -203l371 12 l8 -12q-4 -41 -4 -76q0 -40 2 -55z" />
<glyph unicode="&#xb3;" horiz-adv-x="614" d="M569 813q0 -124 -105 -211.5t-253 -87.5q-86 0 -160 31l-33 190l54 13q38 -83 80.5 -117.5t105.5 -34.5q64 0 104.5 43t40.5 111q0 66 -39.5 104.5t-107.5 38.5q-38 0 -78 -12l-14 12l24 98h50q60 0 96.5 32.5t36.5 86.5q0 47 -32 74.5t-87 27.5q-56 0 -88 -28t-51 -92 h-58l41 196q60 33 101 45.5t94 12.5q100 0 164.5 -50t64.5 -127q0 -107 -123 -174q83 -10 127.5 -57.5t44.5 -124.5z" />
<glyph unicode="&#xb4;" horiz-adv-x="681" d="M647 1325q0 -33 -19 -57.5t-69 -55.5l-285 -176h-114l264 303q67 76 133 76q40 0 65 -24.5t25 -65.5z" />
<glyph unicode="&#xb5;" horiz-adv-x="1251" d="M1194 -6q-43 2 -96 2q-57 4 -113 4l-192 -6l10 170l-174 -174q-25 -25 -107 -25q-103 0 -174 47q33 -205 33 -309q0 -66 -51 -112t-133 -52v1114q0 91 -9.5 116t-44.5 28l-92 6v74q147 18 232 43l143 45l20 -13v-534q0 -148 36 -208t124 -60q81 0 139 54.5t58 129.5v319 q0 91 -9 116t-44 28l-93 6v74q148 18 232 43l143 45l21 -13v-747q0 -83 12.5 -105.5t60.5 -25.5l68 -4v-76z" />
<glyph unicode="&#xb6;" horiz-adv-x="1312" d="M1227 -330l-414 6l-414 -6v84l101 4q47 1 60 24.5t13 106.5v775q-123 9 -206.5 38t-167.5 91q-160 120 -160 290q0 141 120 231.5t308 84.5l115 -4l311 -6q6 0 33.5 1t46.5 1l254 4v-84h-97q-43 0 -60 -35t-17 -123v-1264q0 -83 13 -106.5t60 -24.5l101 -4v-84zM872 -227 v1525h-118v-1525h118zM573 760v538q-12 2 -30 2q-101 0 -168.5 -71t-67.5 -178q0 -111 69.5 -187t196.5 -104z" />
<glyph unicode="&#xb7;" horiz-adv-x="512" d="M416 512q0 -66 -47 -113t-113 -47t-113 47t-47 113t47 113t113 47t113 -47t47 -113z" />
<glyph unicode="&#xb8;" horiz-adv-x="681" d="M614 -283q0 -82 -73.5 -130t-198.5 -48q-82 0 -192 37l32 76q95 -19 137 -19q103 0 103 76q0 34 -20.5 53t-57.5 19q-9 0 -74 -8l-20 16l88 225h84l-57 -159q47 12 92 12q72 0 114.5 -40.5t42.5 -109.5z" />
<glyph unicode="&#xb9;" horiz-adv-x="614" d="M567 530q-21 0 -97.5 2.5t-125.5 2.5q-43 0 -93 -2t-165 -3v60l94 2q64 0 64 51v535q0 30 -2 36l-4 5l-2 -2l-179 -82q-20 49 -20 88v2v10q115 26 375 123l20 -17q-12 -197 -12 -309v-389q0 -48 63 -51l84 -2v-60z" />
<glyph unicode="&#xba;" horiz-adv-x="999" d="M817 1059q0 -146 -88 -226.5t-246 -80.5q-146 0 -223.5 77.5t-77.5 223.5q0 144 85.5 221.5t244.5 77.5q148 0 226.5 -76t78.5 -217zM637 1024q0 268 -143 268q-68 0 -100 -51t-32 -160q0 -270 146 -270q68 0 98.5 50.5t30.5 162.5zM817 590h-635v98h635v-98z" />
<glyph unicode="&#xbb;" d="M537 473q-158 -130 -406 -383l-55 41l225 367l-225 354l55 45q127 -130 406 -373v-51zM950 473q-153 -126 -405 -383l-56 41l226 367l-226 354l56 45q133 -136 405 -373v-51z" />
<glyph unicode="&#xbc;" horiz-adv-x="1536" d="M1505 -4q-122 4 -200 4l-240 -4v61l78 4q36 1 56 26t20 67v49h-318l-8 47q25 74 63 139l160 264q41 67 103 140l155 32l17 -14v-500h110v-108h-110v-49q0 -84 75 -93l39 -4v-61zM598 535q-146 4 -238 4q-50 0 -108 -1.5t-160 -2.5v61l86 4q37 1 57.5 26t20.5 66v482 q0 47 -12 47l-13 -4l-174 -78q-18 63 -18 98q154 41 405 125l17 -10l-8 -88q-7 -89 -7 -97v-475q0 -43 19.5 -67t56.5 -25l76 -4v-61zM1352 1352l-826 -1352h-141l825 1352h142zM1219 311v367l-218 -367h218z" />
<glyph unicode="&#xbd;" horiz-adv-x="1536" d="M1284 1352l-825 -1352h-142l826 1352h141zM578 535q-146 4 -238 4q-50 0 -108 -1.5t-160 -2.5v61l86 4q37 1 57.5 26t20.5 66v482q0 47 -13 47l-8 -2l-178 -80q-19 67 -19 98q159 42 406 125l16 -10l-8 -88q-6 -77 -6 -97v-475q0 -42 20 -66.5t56 -25.5l76 -4v-61z M1526 -4q-272 4 -295 4q-57 0 -299 -4v76l221 207q143 134 143 262q0 61 -38 97t-103 36q-49 0 -75 -19t-40 -65l-20 -68l-57 8l24 207q58 41 107 58.5t106 17.5q124 0 204.5 -60.5t80.5 -154.5q0 -132 -137 -260l-197 -184v-17l365 19l10 -11q-4 -37 -4 -79q0 -39 4 -70z " />
<glyph unicode="&#xbe;" horiz-adv-x="1536" d="M1294 1352l-825 -1352h-141l825 1352h141zM610 829q0 -123 -111.5 -208.5t-271.5 -85.5q-90 0 -164 28l-32 185l45 10q38 -78 84 -113t112 -35q72 0 122 46.5t50 113.5q0 66 -45.5 108t-117.5 42q-36 0 -84 -11l-11 6l27 91h45q69 0 110.5 35t41.5 94q0 51 -35.5 78.5 t-98.5 27.5q-115 0 -151 -119h-53l41 189q58 31 103 43t101 12q104 0 172 -49.5t68 -124.5q0 -107 -151 -180q104 -9 154 -54t50 -129zM1505 -4q-122 4 -200 4l-240 -4v61l78 4q36 1 56 26t20 67v49h-318l-8 47q25 74 63 139l160 264q41 67 103 140l155 32l17 -14v-500h110 v-108h-110v-49q0 -84 75 -93l39 -4v-61zM1219 311v367l-218 -367h218z" />
<glyph unicode="&#xbf;" horiz-adv-x="909" d="M821 -106q-57 -172 -65 -273q-81 -55 -149 -76.5t-158 -21.5q-174 0 -277.5 87t-103.5 234q0 87 32 147.5t113 127.5l158 131q127 106 127 186q0 33 -19 76l-2 4l70 29q53 -67 53 -152q0 -54 -29 -110.5t-100 -143.5q-72 -87 -100.5 -141.5t-28.5 -108.5q0 -72 56.5 -121 t140.5 -49q54 0 96 14t51 34l64 145zM672 799q0 -65 -49 -114.5t-113 -49.5q-61 0 -109.5 49.5t-48.5 112.5t48.5 110t111.5 47q65 0 112.5 -46t47.5 -109z" />
<glyph unicode="&#xc0;" horiz-adv-x="1593" d="M1550 -6q-164 6 -323 6q-156 0 -312 -6v76l109 6q19 1 29 14t10.5 31.5t-2.5 35t-8 31.5l-92 234h-515l-86 -229q-7 -24 -8.5 -49.5t14 -45.5t44.5 -22l102 -6v-76q-117 6 -231 6q-115 0 -232 -6v76l62 6q66 6 114 123l371 897l117 309h145l531 -1239q20 -44 44.5 -64 t67.5 -26l49 -6v-76zM913 537l-213 520l-204 -520h417zM1016 1501h-123l-307 146q-55 25 -76 44t-21 46q0 33 27 53t70 20q73 0 145 -61z" />
<glyph unicode="&#xc1;" horiz-adv-x="1593" d="M1550 -6q-164 6 -323 6q-156 0 -312 -6v76l109 6q19 1 29 14t10.5 31.5t-2.5 35t-8 31.5l-92 234h-515l-86 -229q-7 -24 -8.5 -49.5t14 -45.5t44.5 -22l102 -6v-76q-117 6 -231 6q-115 0 -232 -6v76l62 6q66 6 114 123l371 897l117 309h145l531 -1239q20 -44 44.5 -64 t67.5 -26l49 -6v-76zM913 537l-213 520l-204 -520h417zM1083 1737q0 -27 -20.5 -46t-75.5 -44l-307 -146h-123l285 248q72 61 145 61q43 0 69.5 -20t26.5 -53z" />
<glyph unicode="&#xc2;" horiz-adv-x="1593" d="M1550 -6q-164 6 -323 6q-156 0 -312 -6v76l109 6q19 1 29 14t10.5 31.5t-2.5 35t-8 31.5l-92 234h-515l-86 -229q-7 -24 -8.5 -49.5t14 -45.5t44.5 -22l102 -6v-76q-117 6 -231 6q-115 0 -232 -6v76l62 6q66 6 114 123l371 897l117 309h145l531 -1239q20 -44 44.5 -64 t67.5 -26l49 -6v-76zM913 537l-213 520l-204 -520h417zM1159 1511h-127l-248 166l-249 -166h-121l268 293h207z" />
<glyph unicode="&#xc3;" horiz-adv-x="1593" d="M1550 -6q-164 6 -323 6q-156 0 -312 -6v76l109 6q19 1 29 14t10.5 31.5t-2.5 35t-8 31.5l-92 234h-515l-86 -229q-7 -24 -8.5 -49.5t14 -45.5t44.5 -22l102 -6v-76q-117 6 -231 6q-115 0 -232 -6v76l62 6q66 6 114 123l371 897l117 309h145l531 -1239q20 -44 44.5 -64 t67.5 -26l49 -6v-76zM913 537l-213 520l-204 -520h417zM1161 1786q-37 -134 -94.5 -196t-146.5 -62q-65 0 -172 51q-97 47 -158 47q-65 0 -94 -96h-82q12 114 78 185t159 71q61 0 164 -49t154 -49q37 0 56.5 19t47.5 79h88z" />
<glyph unicode="&#xc4;" horiz-adv-x="1593" d="M1550 -6q-164 6 -323 6q-156 0 -312 -6v76l109 6q19 1 29 14t10.5 31.5t-2.5 35t-8 31.5l-92 234h-515l-86 -229q-7 -24 -8.5 -49.5t14 -45.5t44.5 -22l102 -6v-76q-117 6 -231 6q-115 0 -232 -6v76l62 6q66 6 114 123l371 897l117 309h145l531 -1239q20 -44 44.5 -64 t67.5 -26l49 -6v-76zM913 537l-213 520l-204 -520h417zM1145 1657q0 -57 -40 -97t-97 -40t-97.5 40.5t-40.5 98.5q0 56 41 95.5t99 39.5q55 0 95 -40.5t40 -96.5zM705 1657q0 -57 -40.5 -97t-97.5 -40t-97 40t-40 97t40.5 97t98.5 40q55 0 95.5 -40.5t40.5 -96.5z" />
<glyph unicode="&#xc5;" horiz-adv-x="1593" d="M1550 -6q-164 6 -323 6q-156 0 -312 -6v76l109 6q19 1 29 14t10.5 31.5t-2.5 35t-8 31.5l-92 234h-515l-86 -229q-7 -24 -8.5 -49.5t14 -45.5t44.5 -22l102 -6v-76q-117 6 -231 6q-115 0 -232 -6v76l62 6q66 6 114 123l371 897l117 309h145l531 -1239q20 -44 44.5 -64 t67.5 -26l49 -6v-76zM913 537l-213 520l-204 -520h417zM993 1692q0 -85 -60 -145t-145 -60t-144.5 60.5t-59.5 146.5q0 85 60.5 143.5t148.5 58.5q82 0 141 -60.5t59 -143.5zM891 1692q0 41 -29.5 71.5t-70.5 30.5q-44 0 -74.5 -29.5t-30.5 -72.5t29.5 -73t72.5 -30t73 30 t30 73z" />
<glyph unicode="&#xc6;" horiz-adv-x="2048" d="M1954 340l-23 -324l-10 -16q-194 -10 -289 -8l-329 6l-134 2l-249 -6v47l65 37q23 12 32 38.5t9 78.5v243h-532l-127 -219q-23 -40 -31 -62.5t-8 -50.5q20 -30 49 -30l110 -6v-76l-241 6l-221 -6v76l77 6q24 2 49.5 28.5t61.5 88.5l594 1003q35 57 35 82q0 12 -25.5 23 t-62.5 12l-107 6v76l537 -6l291 4q165 4 170 4h79q91 0 195 -8l12 -15l-28 -291h-74l-17 154q-2 17 -59.5 29t-140.5 12q-144 0 -297 -8v-492q41 -4 137 -4h135q64 0 89 9t28 34l12 117h82q-6 -111 -6 -219q0 -110 6 -221h-82l-12 102q-5 40 -32 58t-85 18h-135 q-52 0 -137 -6v-547l268 -6q142 -2 238 28l6 6l47 193h80zM1026 547v694l-14 35h-15l-442 -729h471z" />
<glyph unicode="&#xc7;" horiz-adv-x="1478" d="M1423 1305q-21 -91 -47 -314h-80l-10 176q-84 77 -166 109.5t-198 32.5q-244 0 -384.5 -153t-140.5 -417q0 -290 163 -465.5t433 -175.5q201 0 400 105l24 -25l-45 -100q-113 -63 -216 -88t-243 -25q-59 0 -100 4l-49 -114q49 12 94 12q71 0 113.5 -40.5t42.5 -109.5 q0 -82 -73.5 -130t-199.5 -48q-85 0 -192 37l33 76q95 -19 137 -19q102 0 102 76q0 34 -20.5 53t-57.5 19q-18 0 -73 -8l-21 16l84 191q-186 33 -303 98q-163 94 -251.5 259t-88.5 374q0 329 227 520.5t615 191.5q135 0 238 -20.5t241 -75.5z" />
<glyph unicode="&#xc8;" horiz-adv-x="1251" d="M1182 340l-23 -324l-10 -16q-117 -6 -287 -6q-77 0 -231.5 3t-231.5 3q-126 0 -252 -6v47l66 37q23 12 32 38t9 79v917q0 50 -0.5 77t-4.5 52.5t-9 36t-18 19.5t-26.5 11.5t-39.5 4.5l-76 6v76q193 -6 389 -6q81 0 241.5 3t241.5 3t195 -6l12 -15l-29 -291h-73l-17 154 q-1 17 -58 28t-142 11l-297 -6v-492q41 -4 137 -4h135q64 0 89 9t28 34l12 117h82q-6 -111 -6 -219q0 -110 6 -221h-82l-12 102q-5 40 -32 58t-85 18h-135q-52 0 -137 -6v-547l305 -6q70 0 137 11t70 23l47 193h80zM879 1501h-123l-307 146q-55 25 -76 44t-21 46q0 33 27 53 t70 20q73 0 145 -61z" />
<glyph unicode="&#xc9;" horiz-adv-x="1251" d="M1182 340l-23 -324l-10 -16q-117 -6 -287 -6q-77 0 -231.5 3t-231.5 3q-126 0 -252 -6v47l66 37q23 12 32 38t9 79v917q0 50 -0.5 77t-4.5 52.5t-9 36t-18 19.5t-26.5 11.5t-39.5 4.5l-76 6v76q193 -6 389 -6q81 0 241.5 3t241.5 3t195 -6l12 -15l-29 -291h-73l-17 154 q-1 17 -58 28t-142 11l-297 -6v-492q41 -4 137 -4h135q64 0 89 9t28 34l12 117h82q-6 -111 -6 -219q0 -110 6 -221h-82l-12 102q-5 40 -32 58t-85 18h-135q-52 0 -137 -6v-547l305 -6q70 0 137 11t70 23l47 193h80zM946 1737q0 -27 -20.5 -46t-75.5 -44l-307 -146h-123 l285 248q72 61 145 61q43 0 69.5 -20t26.5 -53z" />
<glyph unicode="&#xca;" horiz-adv-x="1251" d="M1182 340l-23 -324l-10 -16q-117 -6 -287 -6q-77 0 -231.5 3t-231.5 3q-126 0 -252 -6v47l66 37q23 12 32 38t9 79v917q0 50 -0.5 77t-4.5 52.5t-9 36t-18 19.5t-26.5 11.5t-39.5 4.5l-76 6v76q193 -6 389 -6q81 0 241.5 3t241.5 3t195 -6l12 -15l-29 -291h-73l-17 154 q-1 17 -58 28t-142 11l-297 -6v-492q41 -4 137 -4h135q64 0 89 9t28 34l12 117h82q-6 -111 -6 -219q0 -110 6 -221h-82l-12 102q-5 40 -32 58t-85 18h-135q-52 0 -137 -6v-547l305 -6q70 0 137 11t70 23l47 193h80zM1022 1511h-127l-248 166l-250 -166h-121l269 293h207z " />
<glyph unicode="&#xcb;" horiz-adv-x="1251" d="M1182 340l-23 -324l-10 -16q-117 -6 -287 -6q-77 0 -231.5 3t-231.5 3q-126 0 -252 -6v47l66 37q23 12 32 38t9 79v917q0 50 -0.5 77t-4.5 52.5t-9 36t-18 19.5t-26.5 11.5t-39.5 4.5l-76 6v76q193 -6 389 -6q81 0 241.5 3t241.5 3t195 -6l12 -15l-29 -291h-73l-17 154 q-1 17 -58 28t-142 11l-297 -6v-492q41 -4 137 -4h135q64 0 89 9t28 34l12 117h82q-6 -111 -6 -219q0 -110 6 -221h-82l-12 102q-5 40 -32 58t-85 18h-135q-52 0 -137 -6v-547l305 -6q70 0 137 11t70 23l47 193h80zM1008 1657q0 -57 -40.5 -97t-97.5 -40t-97 40.5t-40 98.5 q0 56 40.5 95.5t98.5 39.5q55 0 95.5 -40.5t40.5 -96.5zM567 1657q0 -57 -40 -97t-97 -40t-97 40t-40 97t40.5 97t98.5 40q55 0 95 -40.5t40 -96.5z" />
<glyph unicode="&#xcc;" horiz-adv-x="796" d="M717 -6q-159 6 -320 6q-158 0 -317 -6v82l76 6q21 2 32 3t23.5 5.5t17.5 8t11.5 16t8 22t3.5 34t2 45v60.5v836v60.5t-2 45t-3.5 34.5t-7.5 22.5t-11.5 15.5t-18 8t-23.5 6t-32 3l-76 6v82q159 -6 317 -6q161 0 320 6v-82l-76 -6q-21 -2 -32 -3t-23.5 -6t-18 -8 t-11.5 -15.5t-7.5 -22.5t-3.5 -34.5t-2 -45v-60.5v-836v-60.5t2 -45t3.5 -34t8 -22t11.5 -16t17.5 -8t23.5 -5.5t32 -3l76 -6v-82zM629 1501h-123l-307 146q-55 25 -76 44t-21 46q0 33 27 53t70 20q73 0 145 -61z" />
<glyph unicode="&#xcd;" horiz-adv-x="796" d="M717 -6q-159 6 -320 6q-158 0 -317 -6v82l76 6q21 2 32 3t23.5 5.5t17.5 8t11.5 16t8 22t3.5 34t2 45v60.5v836v60.5t-2 45t-3.5 34.5t-7.5 22.5t-11.5 15.5t-18 8t-23.5 6t-32 3l-76 6v82q159 -6 317 -6q161 0 320 6v-82l-76 -6q-21 -2 -32 -3t-23.5 -6t-18 -8 t-11.5 -15.5t-7.5 -22.5t-3.5 -34.5t-2 -45v-60.5v-836v-60.5t2 -45t3.5 -34t8 -22t11.5 -16t17.5 -8t23.5 -5.5t32 -3l76 -6v-82zM696 1737q0 -27 -20.5 -46t-75.5 -44l-307 -146h-123l285 248q72 61 145 61q43 0 69.5 -20t26.5 -53z" />
<glyph unicode="&#xce;" horiz-adv-x="796" d="M717 -6q-159 6 -320 6q-158 0 -317 -6v82l76 6q21 2 32 3t23.5 5.5t17.5 8t11.5 16t8 22t3.5 34t2 45v60.5v836v60.5t-2 45t-3.5 34.5t-7.5 22.5t-11.5 15.5t-18 8t-23.5 6t-32 3l-76 6v82q159 -6 317 -6q161 0 320 6v-82l-76 -6q-21 -2 -32 -3t-23.5 -6t-18 -8 t-11.5 -15.5t-7.5 -22.5t-3.5 -34.5t-2 -45v-60.5v-836v-60.5t2 -45t3.5 -34t8 -22t11.5 -16t17.5 -8t23.5 -5.5t32 -3l76 -6v-82zM772 1511h-127l-248 166l-250 -166h-120l268 293h207z" />
<glyph unicode="&#xcf;" horiz-adv-x="796" d="M717 -6q-159 6 -320 6q-158 0 -317 -6v82l76 6q21 2 32 3t23.5 5.5t17.5 8t11.5 16t8 22t3.5 34t2 45v60.5v836v60.5t-2 45t-3.5 34.5t-7.5 22.5t-11.5 15.5t-18 8t-23.5 6t-32 3l-76 6v82q159 -6 317 -6q161 0 320 6v-82l-76 -6q-21 -2 -32 -3t-23.5 -6t-18 -8 t-11.5 -15.5t-7.5 -22.5t-3.5 -34.5t-2 -45v-60.5v-836v-60.5t2 -45t3.5 -34t8 -22t11.5 -16t17.5 -8t23.5 -5.5t32 -3l76 -6v-82zM758 1657q0 -57 -40 -97t-97 -40t-97.5 40.5t-40.5 98.5q0 56 41 95.5t99 39.5q55 0 95 -40.5t40 -96.5zM317 1657q0 -57 -40 -97t-97 -40 t-97 40t-40 97t40.5 97t98.5 40q55 0 95 -40.5t40 -96.5z" />
<glyph unicode="&#xd0;" horiz-adv-x="1705" d="M1610 770q0 -332 -213 -539q-115 -114 -276.5 -175.5t-344.5 -61.5q-53 0 -159.5 3t-159.5 3q-159 0 -318 -6v47l66 37q23 12 32 38.5t9 78.5v497h-226v86h226v334q0 60 -2 90t-6 55t-17 34.5t-28 14t-46 7.5l-75 6v76q166 -6 331 -6q82 0 245 3t245 3q206 0 337.5 -40 t221.5 -130q158 -155 158 -455zM1303 713q0 299 -136 432q-150 147 -503 147q-64 0 -129 -8v-506h309v-86h-309v-575q70 -11 139 -11q172 0 287 35.5t192 110.5q150 150 150 461z" />
<glyph unicode="&#xd1;" horiz-adv-x="1705" d="M1634 1319l-75 -6q-31 -3 -46 -7.5t-28 -14t-17 -34.5t-6 -55t-2 -90v-930l6 -207l-14 -8l-168 27l-250 285l-667 802v-805q0 -51 0.5 -78t4.5 -52.5t9 -35.5t18 -18.5t26.5 -11t39.5 -4.5l76 -6v-76q-117 6 -234 6q-118 0 -235 -6v76l75 6q26 2 39.5 4.5t26.5 11.5 t18 19t9.5 35t5 52.5t0.5 77.5v836q0 60 -2 90t-6 55t-17 34.5t-28 14t-46 7.5l-75 6v76q123 -6 245 -6q86 0 172 6q173 -229 211 -273l639 -745v735q0 50 -0.5 77t-4.5 52.5t-9 36t-18 19.5t-26.5 11.5t-39.5 4.5l-76 6v76q117 -6 236 -6q116 0 233 6v-76zM1229 1786 q-37 -134 -95 -196t-147 -62q-65 0 -172 51q-97 47 -158 47q-65 0 -94 -96h-82q12 114 78.5 185t159.5 71q61 0 164 -49t153 -49q37 0 57 19t48 79h88z" />
<glyph unicode="&#xd2;" horiz-adv-x="1705" d="M1612 709q0 -350 -205.5 -547t-572.5 -197q-352 0 -545 187t-193 528q0 352 206.5 547.5t578.5 195.5q347 0 539 -188t192 -526zM1305 666q0 174 -46 314.5t-131 223.5q-108 105 -266 105q-195 0 -315 -117q-69 -69 -106.5 -189t-37.5 -276q0 -177 46 -318t129 -223 q106 -106 270 -106q224 0 340.5 149t116.5 437zM1087 1501h-122l-308 146q-55 25 -75.5 44t-20.5 46q0 33 26.5 53t69.5 20q74 0 146 -61z" />
<glyph unicode="&#xd3;" horiz-adv-x="1705" d="M1612 709q0 -350 -205.5 -547t-572.5 -197q-352 0 -545 187t-193 528q0 352 206.5 547.5t578.5 195.5q347 0 539 -188t192 -526zM1305 666q0 174 -46 314.5t-131 223.5q-108 105 -266 105q-195 0 -315 -117q-69 -69 -106.5 -189t-37.5 -276q0 -177 46 -318t129 -223 q106 -106 270 -106q224 0 340.5 149t116.5 437zM1155 1737q0 -27 -20.5 -46t-75.5 -44l-307 -146h-123l284 248q72 61 146 61q43 0 69.5 -20t26.5 -53z" />
<glyph unicode="&#xd4;" horiz-adv-x="1705" d="M1612 709q0 -350 -205.5 -547t-572.5 -197q-352 0 -545 187t-193 528q0 352 206.5 547.5t578.5 195.5q347 0 539 -188t192 -526zM1305 666q0 174 -46 314.5t-131 223.5q-108 105 -266 105q-195 0 -315 -117q-69 -69 -106.5 -189t-37.5 -276q0 -177 46 -318t129 -223 q106 -106 270 -106q224 0 340.5 149t116.5 437zM1231 1511h-127l-248 166l-250 -166h-121l269 293h207z" />
<glyph unicode="&#xd5;" horiz-adv-x="1705" d="M1612 709q0 -350 -205.5 -547t-572.5 -197q-352 0 -545 187t-193 528q0 352 206.5 547.5t578.5 195.5q347 0 539 -188t192 -526zM1305 666q0 174 -46 314.5t-131 223.5q-108 105 -266 105q-195 0 -315 -117q-69 -69 -106.5 -189t-37.5 -276q0 -177 46 -318t129 -223 q106 -106 270 -106q224 0 340.5 149t116.5 437zM1233 1786q-37 -134 -95 -196t-147 -62q-65 0 -172 51q-97 47 -157 47q-66 0 -95 -96h-82q12 114 78.5 185t159.5 71q61 0 164 -49t153 -49q37 0 57 19t48 79h88z" />
<glyph unicode="&#xd6;" horiz-adv-x="1705" d="M1612 709q0 -350 -205.5 -547t-572.5 -197q-352 0 -545 187t-193 528q0 352 206.5 547.5t578.5 195.5q347 0 539 -188t192 -526zM1305 666q0 174 -46 314.5t-131 223.5q-108 105 -266 105q-195 0 -315 -117q-69 -69 -106.5 -189t-37.5 -276q0 -177 46 -318t129 -223 q106 -106 270 -106q224 0 340.5 149t116.5 437zM1217 1657q0 -57 -40.5 -97t-97.5 -40t-97 40.5t-40 98.5q0 56 40.5 95.5t98.5 39.5q55 0 95.5 -40.5t40.5 -96.5zM776 1657q0 -57 -40 -97t-97 -40t-97 40t-40 97t40.5 97t98.5 40q55 0 95 -40.5t40 -96.5z" />
<glyph unicode="&#xd7;" horiz-adv-x="1241" d="M1055 203l-125 -125l-309 309l-310 -309l-125 125l310 309l-310 309l125 125l310 -309l309 309l125 -125l-310 -309z" />
<glyph unicode="&#xd8;" horiz-adv-x="1705" d="M1655 1350l-182 -168q78 -113 108.5 -213t30.5 -246q0 -362 -204 -560t-579 -198q-160 0 -299 43q-68 21 -107.5 45t-94.5 74l-185 -168l-77 82l186 170q-86 101 -121 203.5t-35 253.5q0 360 204.5 557.5t576.5 197.5q148 0 278 -37q77 -22 126 -46.5t116 -75.5l182 166z M1212 1094q-67 118 -145 166.5t-199 48.5q-465 0 -465 -594q0 -197 52 -322zM1305 682q0 193 -45 303l-764 -702q78 -112 154.5 -157.5t189.5 -45.5q235 0 350 149t115 453z" />
<glyph unicode="&#xd9;" horiz-adv-x="1593" d="M1556 1319l-75 -6q-31 -3 -46 -7.5t-28 -14t-17 -34.5t-6 -55t-2 -90v-598q0 -278 -143 -413.5t-438 -135.5q-264 0 -419 107t-155 290v750q0 50 -0.5 77t-4.5 52.5t-9 36t-18 19.5t-26.5 11.5t-39.5 4.5l-76 6v76q159 -6 318 -6q160 0 319 6v-76l-76 -6 q-26 -2 -39.5 -4.5t-26.5 -11.5t-18 -19.5t-9 -36t-4.5 -52.5t-0.5 -77v-508q0 -160 16.5 -242.5t57.5 -132.5q80 -96 287 -96q203 0 288 88q53 54 75 144.5t22 252.5v494q0 60 -2 90t-6 55t-17 34.5t-28 14t-46 7.5l-76 6v76q117 -6 236 -6q116 0 233 6v-76zM1118 1501 h-123l-307 146q-55 25 -75.5 44t-20.5 46q0 33 26.5 53t69.5 20q74 0 146 -61z" />
<glyph unicode="&#xda;" horiz-adv-x="1593" d="M1556 1319l-75 -6q-31 -3 -46 -7.5t-28 -14t-17 -34.5t-6 -55t-2 -90v-598q0 -278 -143 -413.5t-438 -135.5q-264 0 -419 107t-155 290v750q0 50 -0.5 77t-4.5 52.5t-9 36t-18 19.5t-26.5 11.5t-39.5 4.5l-76 6v76q159 -6 318 -6q160 0 319 6v-76l-76 -6 q-26 -2 -39.5 -4.5t-26.5 -11.5t-18 -19.5t-9 -36t-4.5 -52.5t-0.5 -77v-508q0 -160 16.5 -242.5t57.5 -132.5q80 -96 287 -96q203 0 288 88q53 54 75 144.5t22 252.5v494q0 60 -2 90t-6 55t-17 34.5t-28 14t-46 7.5l-76 6v76q117 -6 236 -6q116 0 233 6v-76zM1186 1737 q0 -27 -20.5 -46t-75.5 -44l-308 -146h-123l285 248q72 61 146 61q43 0 69.5 -20t26.5 -53z" />
<glyph unicode="&#xdb;" horiz-adv-x="1593" d="M1556 1319l-75 -6q-31 -3 -46 -7.5t-28 -14t-17 -34.5t-6 -55t-2 -90v-598q0 -278 -143 -413.5t-438 -135.5q-264 0 -419 107t-155 290v750q0 50 -0.5 77t-4.5 52.5t-9 36t-18 19.5t-26.5 11.5t-39.5 4.5l-76 6v76q159 -6 318 -6q160 0 319 6v-76l-76 -6 q-26 -2 -39.5 -4.5t-26.5 -11.5t-18 -19.5t-9 -36t-4.5 -52.5t-0.5 -77v-508q0 -160 16.5 -242.5t57.5 -132.5q80 -96 287 -96q203 0 288 88q53 54 75 144.5t22 252.5v494q0 60 -2 90t-6 55t-17 34.5t-28 14t-46 7.5l-76 6v76q117 -6 236 -6q116 0 233 6v-76zM1262 1511 h-127l-248 166l-250 -166h-121l268 293h207z" />
<glyph unicode="&#xdc;" horiz-adv-x="1593" d="M1556 1319l-75 -6q-31 -3 -46 -7.5t-28 -14t-17 -34.5t-6 -55t-2 -90v-598q0 -278 -143 -413.5t-438 -135.5q-264 0 -419 107t-155 290v750q0 50 -0.5 77t-4.5 52.5t-9 36t-18 19.5t-26.5 11.5t-39.5 4.5l-76 6v76q159 -6 318 -6q160 0 319 6v-76l-76 -6 q-26 -2 -39.5 -4.5t-26.5 -11.5t-18 -19.5t-9 -36t-4.5 -52.5t-0.5 -77v-508q0 -160 16.5 -242.5t57.5 -132.5q80 -96 287 -96q203 0 288 88q53 54 75 144.5t22 252.5v494q0 60 -2 90t-6 55t-17 34.5t-28 14t-46 7.5l-76 6v76q117 -6 236 -6q116 0 233 6v-76zM1247 1657 q0 -57 -40 -97t-97 -40t-97 40.5t-40 98.5q0 56 40.5 95.5t98.5 39.5q55 0 95 -40.5t40 -96.5zM807 1657q0 -57 -40 -97t-97 -40t-97.5 40t-40.5 97t41 97t99 40q55 0 95 -40.5t40 -96.5z" />
<glyph unicode="&#xdd;" horiz-adv-x="1366" d="M1352 1350l-361 -535q-50 -75 -108 -205v-334v-60.5t2 -45t3.5 -34t8 -22t11.5 -16t17.5 -8t23.5 -5.5t32 -3l76 -6v-82q-159 6 -320 6q-158 0 -317 -6v82l76 6q21 2 32 3t23.5 5.5t17.5 8t11.5 16t8 22t3.5 34t2 45v60.5v285q-49 109 -90 174l-207 334 q-80 130 -132 167.5t-134 37.5v76l325 73q71 -42 122 -102t112 -176l219 -416l385 660h158v-39zM1036 1737q0 -27 -20.5 -46t-75.5 -44l-307 -146h-123l285 248q72 61 145 61q43 0 69.5 -20t26.5 -53z" />
<glyph unicode="&#xde;" horiz-adv-x="1251" d="M1176 811q0 -181 -121 -307.5t-293 -126.5q-38 5 -64 8t-35 3.5t-15.5 1t-10.5 1.5v51v41q22 -14 88 -14q156 0 156 252q0 168 -58 242q-23 29 -54 41t-83 12q-94 0 -143 -19v-721v-62t2 -45.5t3.5 -34.5t8 -22.5t11 -15t18 -7t23.5 -5.5t32 -2l96 -6v-82q-169 6 -338 6 q-160 0 -319 -6v82l76 6q21 2 32 3t23.5 5.5t17.5 8t11.5 16t8 22t3.5 34t2 45v60.5v836q1 59 -1 90t-6 55.5t-16.5 34t-28 14t-46.5 7.5l-76 6v76q159 -6 317 -6q161 0 320 6v-76l-76 -6q-65 -5 -81.5 -29t-16.5 -113v-47q73 -6 147 -6q247 0 346 -51q140 -70 140 -256z " />
<glyph unicode="&#xdf;" horiz-adv-x="1251" d="M1157 342q0 -66 -23.5 -114.5t-82.5 -104.5l-93 -86q-34 -32 -57 -41q-87 -31 -160 -31q-67 0 -149 43v-14q-123 6 -244 6q-143 0 -287 -6v76l80 4q48 3 61 26t13 105v549h-145v47l141 92v149q0 57 33.5 112.5t111.5 125.5q116 104 209.5 149.5t194.5 45.5 q140 0 223.5 -80t83.5 -213q0 -54 -9.5 -112.5t-39.5 -186.5l-12 -54l-27 -18q-51 39 -111 39q-46 0 -73 -21.5t-27 -58.5t24 -64.5t82 -58.5q3 -2 11 -6l162 -94q60 -35 85 -81.5t25 -123.5zM952 205q0 51 -33.5 87.5t-136.5 98.5q-116 71 -154 119.5t-38 124.5 q0 153 188 283q30 21 57 28.5t68 7.5q15 100 15 136q0 109 -64.5 178t-165.5 69q-60 0 -111 -26t-77 -70q-35 -59 -35 -231v-807q0 -72 12.5 -97.5t52.5 -29.5l60 -6l18 159l68 13l8 -111q73 -49 131 -49t97.5 35t39.5 88z" />
<glyph unicode="&#xe0;" d="M979 -6q-88 6 -180 6q-95 0 -187 -6l-10 16l10 127l-190 -147q-31 -25 -100 -25q-117 0 -178.5 65t-61.5 189q0 130 78 198.5t272 108.5l180 37q-4 126 -55 184t-154 58q-41 0 -77 -9t-41 -20l-45 -102l-62 14v141l109 66q116 70 245 70q155 0 241.5 -77t86.5 -212v-475 q0 -72 11.5 -97t46.5 -28l61 -6v-76zM612 236v241l-92 -24q-109 -29 -148.5 -67.5t-39.5 -113.5q0 -60 27.5 -94.5t76.5 -34.5q45 0 95 26.5t81 66.5zM715 1036h-115l-285 176q-50 31 -69 55.5t-19 57.5q0 41 25 65.5t65 24.5q67 0 134 -76z" />
<glyph unicode="&#xe1;" d="M979 -6q-88 6 -180 6q-95 0 -187 -6l-10 16l10 127l-190 -147q-31 -25 -100 -25q-117 0 -178.5 65t-61.5 189q0 130 78 198.5t272 108.5l180 37q-4 126 -55 184t-154 58q-41 0 -77 -9t-41 -20l-45 -102l-62 14v141l109 66q116 70 245 70q155 0 241.5 -77t86.5 -212v-475 q0 -72 11.5 -97t46.5 -28l61 -6v-76zM612 236v241l-92 -24q-109 -29 -148.5 -67.5t-39.5 -113.5q0 -60 27.5 -94.5t76.5 -34.5q45 0 95 26.5t81 66.5zM838 1325q0 -33 -19 -57.5t-69 -55.5l-285 -176h-115l264 303q67 76 134 76q40 0 65 -24.5t25 -65.5z" />
<glyph unicode="&#xe2;" d="M979 -6q-88 6 -180 6q-95 0 -187 -6l-10 16l10 127l-190 -147q-31 -25 -100 -25q-117 0 -178.5 65t-61.5 189q0 130 78 198.5t272 108.5l180 37q-4 126 -55 184t-154 58q-41 0 -77 -9t-41 -20l-45 -102l-62 14v141l109 66q116 70 245 70q155 0 241.5 -77t86.5 -212v-475 q0 -72 11.5 -97t46.5 -28l61 -6v-76zM612 236v241l-92 -24q-109 -29 -148.5 -67.5t-39.5 -113.5q0 -60 27.5 -94.5t76.5 -34.5q45 0 95 26.5t81 66.5zM877 1049h-117l-230 200l-231 -200h-113l248 358h191z" />
<glyph unicode="&#xe3;" d="M979 -6q-88 6 -180 6q-95 0 -187 -6l-10 16l10 127l-190 -147q-31 -25 -100 -25q-117 0 -178.5 65t-61.5 189q0 130 78 198.5t272 108.5l180 37q-4 126 -55 184t-154 58q-41 0 -77 -9t-41 -20l-45 -102l-62 14v141l109 66q116 70 245 70q155 0 241.5 -77t86.5 -212v-475 q0 -72 11.5 -97t46.5 -28l61 -6v-76zM612 236v241l-92 -24q-109 -29 -148.5 -67.5t-39.5 -113.5q0 -60 27.5 -94.5t76.5 -34.5q45 0 95 26.5t81 66.5zM905 1356q-37 -134 -94.5 -196t-146.5 -62q-65 0 -172 51q-97 47 -158 47q-65 0 -94 -96h-82q12 114 78 185t159 71 q61 0 164 -49q105 -50 154 -50q36 0 56 19t48 80h88z" />
<glyph unicode="&#xe4;" d="M979 -6q-88 6 -180 6q-95 0 -187 -6l-10 16l10 127l-190 -147q-31 -25 -100 -25q-117 0 -178.5 65t-61.5 189q0 130 78 198.5t272 108.5l180 37q-4 126 -55 184t-154 58q-41 0 -77 -9t-41 -20l-45 -102l-62 14v141l109 66q116 70 245 70q155 0 241.5 -77t86.5 -212v-475 q0 -72 11.5 -97t46.5 -28l61 -6v-76zM612 236v241l-92 -24q-109 -29 -148.5 -67.5t-39.5 -113.5q0 -60 27.5 -94.5t76.5 -34.5q45 0 95 26.5t81 66.5zM889 1227q0 -57 -40 -97t-97 -40t-97.5 40.5t-40.5 98.5q0 56 41 95.5t99 39.5q55 0 95 -40.5t40 -96.5zM449 1227 q0 -57 -40.5 -97t-97.5 -40t-97 40t-40 97t40.5 97t98.5 40q55 0 95.5 -40.5t40.5 -96.5z" />
<glyph unicode="&#xe5;" d="M979 -6q-88 6 -180 6q-95 0 -187 -6l-10 16l10 127l-190 -147q-31 -25 -100 -25q-117 0 -178.5 65t-61.5 189q0 130 78 198.5t272 108.5l180 37q-4 126 -55 184t-154 58q-41 0 -77 -9t-41 -20l-45 -102l-62 14v141l109 66q116 70 245 70q155 0 241.5 -77t86.5 -212v-475 q0 -72 11.5 -97t46.5 -28l61 -6v-76zM612 236v241l-92 -24q-109 -29 -148.5 -67.5t-39.5 -113.5q0 -60 27.5 -94.5t76.5 -34.5q45 0 95 26.5t81 66.5zM737 1227q0 -85 -60 -145t-145 -60t-144.5 60.5t-59.5 146.5q0 85 60.5 144t148.5 59q82 0 141 -61t59 -144zM635 1227 q0 41 -29.5 71.5t-70.5 30.5q-44 0 -74.5 -29.5t-30.5 -72.5t29.5 -73t72.5 -30t73 30t30 73z" />
<glyph unicode="&#xe6;" horiz-adv-x="1593" d="M1497 498q-163 -41 -323 -41h-269q3 -72 13.5 -115t35.5 -86q38 -66 108 -105.5t148 -39.5q63 0 116.5 15.5t125.5 55.5l25 -30l-45 -99q-98 -51 -167.5 -69.5t-160.5 -18.5q-138 0 -233.5 46.5t-165.5 148.5l-234 -168q-14 -9 -55 -18t-74 -9q-107 0 -177.5 72 t-70.5 182q0 121 60 184q62 71 319 123l180 37q-3 68 -12.5 105t-32.5 71q-58 80 -174 80q-77 0 -147 -49l-33 -86l-66 8v137l109 66q116 70 250 70q94 0 154.5 -23t127.5 -84q69 57 137.5 82t153.5 25q169 0 273 -99.5t104 -261.5v-106zM1237 565q-3 152 -42.5 218.5 t-127.5 66.5q-89 0 -129 -66t-45 -219l65 -2l99 -4h8zM653 236v233l-112 -27q-97 -23 -143 -66.5t-46 -113.5q0 -57 31 -88t88 -31q51 0 101 26t81 67z" />
<glyph unicode="&#xe7;" horiz-adv-x="909" d="M848 129l-43 -94q-128 -70 -277 -70l-49 -110q49 12 94 12q71 0 113.5 -40.5t42.5 -109.5q0 -82 -73 -130t-199 -48q-86 0 -193 37l33 76q95 -19 137 -19q103 0 103 76q0 34 -20.5 53t-57.5 19q-19 0 -74 -8l-20 16l81 182q-183 25 -276.5 151.5t-93.5 346.5 q0 133 55.5 220t192.5 169l106 64q73 43 184 43q56 0 98.5 -8t112.5 -33l15 -27q-27 -134 -41 -289h-74l-14 123q-5 36 -58 62t-123 26q-98 0 -149 -72t-51 -212q0 -197 86.5 -310.5t238.5 -113.5q80 0 174 39z" />
<glyph unicode="&#xe8;" d="M944 498q-165 -41 -323 -41h-269q3 -74 14 -118t37 -87q38 -64 107.5 -102.5t146.5 -38.5q63 0 116.5 15.5t125.5 55.5l25 -30l-45 -99q-100 -51 -167.5 -69.5t-156.5 -18.5q-230 0 -349.5 127t-119.5 371q0 147 46.5 242t148.5 155l96 58q78 47 178 47q178 0 283.5 -98 t105.5 -263v-106zM684 565q0 151 -40.5 218t-129.5 67q-90 0 -132 -67t-42 -218l66 -2q32 -1 52 -2t24.5 -1.5t8 -0.5h6h15.5zM737 1036h-114l-285 176q-50 31 -69 55.5t-19 57.5q0 41 25 65.5t65 24.5q66 0 133 -76z" />
<glyph unicode="&#xe9;" d="M944 498q-165 -41 -323 -41h-269q3 -74 14 -118t37 -87q38 -64 107.5 -102.5t146.5 -38.5q63 0 116.5 15.5t125.5 55.5l25 -30l-45 -99q-100 -51 -167.5 -69.5t-156.5 -18.5q-230 0 -349.5 127t-119.5 371q0 147 46.5 242t148.5 155l96 58q78 47 178 47q178 0 283.5 -98 t105.5 -263v-106zM684 565q0 151 -40.5 218t-129.5 67q-90 0 -132 -67t-42 -218l66 -2q32 -1 52 -2t24.5 -1.5t8 -0.5h6h15.5zM860 1325q0 -33 -19 -57.5t-69 -55.5l-285 -176h-114l264 303q67 76 133 76q40 0 65 -24.5t25 -65.5z" />
<glyph unicode="&#xea;" d="M944 498q-165 -41 -323 -41h-269q3 -74 14 -118t37 -87q38 -64 107.5 -102.5t146.5 -38.5q63 0 116.5 15.5t125.5 55.5l25 -30l-45 -99q-100 -51 -167.5 -69.5t-156.5 -18.5q-230 0 -349.5 127t-119.5 371q0 147 46.5 242t148.5 155l96 58q78 47 178 47q178 0 283.5 -98 t105.5 -263v-106zM684 565q0 151 -40.5 218t-129.5 67q-90 0 -132 -67t-42 -218l66 -2q32 -1 52 -2t24.5 -1.5t8 -0.5h6h15.5zM899 1049h-117l-229 200l-231 -200h-113l248 358h190z" />
<glyph unicode="&#xeb;" d="M944 498q-165 -41 -323 -41h-269q3 -74 14 -118t37 -87q38 -64 107.5 -102.5t146.5 -38.5q63 0 116.5 15.5t125.5 55.5l25 -30l-45 -99q-100 -51 -167.5 -69.5t-156.5 -18.5q-230 0 -349.5 127t-119.5 371q0 147 46.5 242t148.5 155l96 58q78 47 178 47q178 0 283.5 -98 t105.5 -263v-106zM684 565q0 151 -40.5 218t-129.5 67q-90 0 -132 -67t-42 -218l66 -2q32 -1 52 -2t24.5 -1.5t8 -0.5h6h15.5zM911 1227q0 -57 -40 -97t-97 -40t-97 40.5t-40 98.5q0 56 40.5 95.5t98.5 39.5q55 0 95 -40.5t40 -96.5zM471 1227q0 -57 -40 -97t-97 -40t-97 40 t-40 97t40.5 97t98.5 40q55 0 95 -40.5t40 -96.5z" />
<glyph unicode="&#xec;" horiz-adv-x="681" d="M610 -6q-138 6 -276 6q-132 0 -264 -6v76l71 4q48 3 61 26t13 105v448q0 91 -9 116t-44 28l-92 6v74l30 4q107 15 201 39q25 6 61 17.5t59 19.5l23 8l21 -13v-747q0 -82 13 -105t61 -26l71 -4v-76zM522 1036h-114l-285 176q-50 31 -69 55.5t-19 57.5q0 41 25 65.5 t65 24.5q66 0 133 -76z" />
<glyph unicode="&#xed;" horiz-adv-x="681" d="M610 -6q-138 6 -276 6q-132 0 -264 -6v76l71 4q48 3 61 26t13 105v448q0 91 -9 116t-44 28l-92 6v74l30 4q107 15 201 39q25 6 61 17.5t59 19.5l23 8l21 -13v-747q0 -82 13 -105t61 -26l71 -4v-76zM645 1325q0 -33 -19 -57.5t-69 -55.5l-285 -176h-114l264 303 q67 76 133 76q40 0 65 -24.5t25 -65.5z" />
<glyph unicode="&#xee;" horiz-adv-x="681" d="M610 -6q-138 6 -276 6q-132 0 -264 -6v76l71 4q48 3 61 26t13 105v448q0 91 -9 116t-44 28l-92 6v74l30 4q107 15 201 39q25 6 61 17.5t59 19.5l23 8l21 -13v-747q0 -82 13 -105t61 -26l71 -4v-76zM684 1049h-117l-229 200l-232 -200h-112l248 358h190z" />
<glyph unicode="&#xef;" horiz-adv-x="681" d="M610 -6q-138 6 -276 6q-132 0 -264 -6v76l71 4q48 3 61 26t13 105v448q0 91 -9 116t-44 28l-92 6v74l30 4q107 15 201 39q25 6 61 17.5t59 19.5l23 8l21 -13v-747q0 -82 13 -105t61 -26l71 -4v-76zM696 1227q0 -57 -40 -97t-97 -40t-97 40.5t-40 98.5q0 56 40.5 95.5 t98.5 39.5q55 0 95 -40.5t40 -96.5zM256 1227q0 -57 -40 -97t-97 -40t-97 40t-40 97t40.5 97t98.5 40q55 0 95 -40.5t40 -96.5z" />
<glyph unicode="&#xf0;" horiz-adv-x="1138" d="M1059 551q0 -272 -139.5 -429t-380.5 -157q-217 0 -337 130t-120 364q0 237 128 371.5t353 134.5q55 0 113 -19q-25 99 -125 217l-272 -127l-37 78l247 115q-93 90 -194 139l82 107q104 -51 163 -85.5t119 -80.5l275 127l37 -78l-238 -111q116 -116 174 -200t99 -197 q53 -148 53 -299zM780 461q0 206 -53.5 305.5t-165.5 99.5q-106 0 -153.5 -85t-47.5 -275q0 -218 55.5 -330.5t162.5 -112.5q104 0 153 97t49 301z" />
<glyph unicode="&#xf1;" horiz-adv-x="1251" d="M1202 -6q-105 6 -207 6q-93 0 -184 -6v559q0 123 -46 179t-147 56q-68 0 -121 -42.5t-53 -96.5v-444q0 -82 13 -105t61 -26l72 -4v-76q-138 6 -277 6q-132 0 -264 -6v76l72 4q48 3 61 26t13 105v448q0 91 -9.5 116t-44.5 28l-92 6v74q86 5 156 20.5t227 67.5l12 -13v-153 l164 127q48 39 144 39q154 0 237 -86q40 -43 56 -108.5t16 -184.5v-381q0 -82 13 -105t61 -26l67 -4v-76zM1001 1356q-37 -134 -94.5 -196t-146.5 -62q-65 0 -172 51q-97 47 -158 47q-65 0 -94 -96h-82q12 114 78.5 185t159.5 71q60 0 163 -49q105 -50 154 -50q36 0 56 19 t48 80h88z" />
<glyph unicode="&#xf2;" horiz-adv-x="1138" d="M1059 483q0 -249 -133 -383.5t-379 -134.5q-223 0 -344 129t-121 365q0 245 131 375.5t375 130.5q227 0 349 -124.5t122 -357.5zM780 420q0 226 -53.5 336t-163.5 110q-106 0 -154.5 -86t-48.5 -272q0 -445 224 -445q104 0 150 84.5t46 272.5zM750 1036h-115l-285 176 q-50 31 -69 55.5t-19 57.5q0 41 25 65.5t65 24.5q66 0 133 -76z" />
<glyph unicode="&#xf3;" horiz-adv-x="1138" d="M1059 483q0 -249 -133 -383.5t-379 -134.5q-223 0 -344 129t-121 365q0 245 131 375.5t375 130.5q227 0 349 -124.5t122 -357.5zM780 420q0 226 -53.5 336t-163.5 110q-106 0 -154.5 -86t-48.5 -272q0 -445 224 -445q104 0 150 84.5t46 272.5zM872 1325q0 -33 -19 -57.5 t-69 -55.5q-5 -3 -9 -5q-41 -27 -275 -171h-115l264 303q67 76 133 76q40 0 65 -24.5t25 -65.5z" />
<glyph unicode="&#xf4;" horiz-adv-x="1138" d="M1059 483q0 -249 -133 -383.5t-379 -134.5q-223 0 -344 129t-121 365q0 245 131 375.5t375 130.5q227 0 349 -124.5t122 -357.5zM780 420q0 226 -53.5 336t-163.5 110q-106 0 -154.5 -86t-48.5 -272q0 -445 224 -445q104 0 150 84.5t46 272.5zM911 1049h-116l-230 200 l-231 -200h-113l248 358h190z" />
<glyph unicode="&#xf5;" horiz-adv-x="1138" d="M1059 483q0 -249 -133 -383.5t-379 -134.5q-223 0 -344 129t-121 365q0 245 131 375.5t375 130.5q227 0 349 -124.5t122 -357.5zM780 420q0 226 -53.5 336t-163.5 110q-106 0 -154.5 -86t-48.5 -272q0 -445 224 -445q104 0 150 84.5t46 272.5zM940 1356 q-37 -134 -95 -196t-147 -62q-65 0 -172 51q-97 47 -157 47q-66 0 -95 -96h-81q12 114 78 185t159 71q61 0 164 -49q105 -50 154 -50q36 0 56 19t48 80h88z" />
<glyph unicode="&#xf6;" horiz-adv-x="1138" d="M1059 483q0 -249 -133 -383.5t-379 -134.5q-223 0 -344 129t-121 365q0 245 131 375.5t375 130.5q227 0 349 -124.5t122 -357.5zM780 420q0 226 -53.5 336t-163.5 110q-106 0 -154.5 -86t-48.5 -272q0 -445 224 -445q104 0 150 84.5t46 272.5zM924 1227q0 -57 -40.5 -97 t-97.5 -40t-97 40.5t-40 98.5q0 56 40.5 95.5t98.5 39.5q55 0 95.5 -40.5t40.5 -96.5zM483 1227q0 -57 -40 -97t-97 -40t-97 40t-40 97t40.5 97t98.5 40q55 0 95 -40.5t40 -96.5z" />
<glyph unicode="&#xf7;" horiz-adv-x="1241" d="M1147 424h-1053v176h1053v-176zM780 860q0 -66 -46.5 -113t-112.5 -47t-113 47t-47 113t47 113t113 47t112.5 -47t46.5 -113zM780 164q0 -66 -46.5 -113t-112.5 -47t-113 47t-47 113t47 113t113 47t112.5 -47t46.5 -113z" />
<glyph unicode="&#xf8;" horiz-adv-x="1138" d="M1094 913l-123 -114q50 -72 69 -137.5t19 -163.5q0 -258 -131.5 -395.5t-380.5 -137.5q-98 0 -172 26.5t-156 90.5l-125 -119l-47 47l129 121q-94 122 -94 328q0 244 130.5 375t373.5 131q114 0 195 -27.5t149 -89.5l114 110zM754 682q-31 100 -74 142t-115 42 q-205 0 -205 -338q0 -82 17 -204zM780 424q0 107 -14 178l-377 -358q37 -97 82.5 -139t114.5 -42q103 0 148.5 85t45.5 276z" />
<glyph unicode="&#xf9;" horiz-adv-x="1251" d="M1194 -6q-105 6 -207 6q-95 0 -194 -6l10 170l-156 -152q-47 -47 -141 -47q-149 0 -229 83.5t-80 238.5v366q0 91 -9.5 116t-44.5 28l-92 6v74q148 18 232 43l143 45l20 -13v-534q0 -148 36 -208t124 -60q82 0 139.5 54t57.5 130v319q0 91 -9 116t-44 28l-93 6v74 q150 19 232 43l143 45l21 -13v-747q0 -84 12 -106t61 -25l68 -4v-76zM807 1036h-115q-234 144 -275 171q-4 2 -9 5q-50 31 -69.5 55.5t-19.5 57.5q0 41 25.5 65.5t65.5 24.5q66 0 133 -76z" />
<glyph unicode="&#xfa;" horiz-adv-x="1251" d="M1194 -6q-105 6 -207 6q-95 0 -194 -6l10 170l-156 -152q-47 -47 -141 -47q-149 0 -229 83.5t-80 238.5v366q0 91 -9.5 116t-44.5 28l-92 6v74q148 18 232 43l143 45l20 -13v-534q0 -148 36 -208t124 -60q82 0 139.5 54t57.5 130v319q0 91 -9 116t-44 28l-93 6v74 q150 19 232 43l143 45l21 -13v-747q0 -84 12 -106t61 -25l68 -4v-76zM930 1325q0 -33 -19 -57.5t-69 -55.5l-285 -176h-115l265 303q67 76 133 76q40 0 65 -24.5t25 -65.5z" />
<glyph unicode="&#xfb;" horiz-adv-x="1251" d="M1194 -6q-105 6 -207 6q-95 0 -194 -6l10 170l-156 -152q-47 -47 -141 -47q-149 0 -229 83.5t-80 238.5v366q0 91 -9.5 116t-44.5 28l-92 6v74q148 18 232 43l143 45l20 -13v-534q0 -148 36 -208t124 -60q82 0 139.5 54t57.5 130v319q0 91 -9 116t-44 28l-93 6v74 q150 19 232 43l143 45l21 -13v-747q0 -84 12 -106t61 -25l68 -4v-76zM969 1049h-117l-229 200l-232 -200h-112l247 358h191z" />
<glyph unicode="&#xfc;" horiz-adv-x="1251" d="M1194 -6q-105 6 -207 6q-95 0 -194 -6l10 170l-156 -152q-47 -47 -141 -47q-149 0 -229 83.5t-80 238.5v366q0 91 -9.5 116t-44.5 28l-92 6v74q148 18 232 43l143 45l20 -13v-534q0 -148 36 -208t124 -60q82 0 139.5 54t57.5 130v319q0 91 -9 116t-44 28l-93 6v74 q150 19 232 43l143 45l21 -13v-747q0 -84 12 -106t61 -25l68 -4v-76zM981 1227q0 -57 -40 -97t-97 -40t-97 40.5t-40 98.5q0 56 40.5 95.5t98.5 39.5q55 0 95 -40.5t40 -96.5zM541 1227q0 -57 -40.5 -97t-97.5 -40t-97 40t-40 97t41 97t99 40q55 0 95 -40.5t40 -96.5z" />
<glyph unicode="&#xfd;" horiz-adv-x="1138" d="M1118 862l-53 -10q-45 -9 -84 -96l-408 -949q-78 -181 -165.5 -266.5t-194.5 -85.5q-73 0 -150 35l37 195l23 8q67 -76 143 -76q53 0 103.5 49.5t85.5 136.5l47 115l-324 827q-23 59 -43 85.5t-43 27.5l-72 4v78q135 -6 273 -6q135 0 270 6v-78l-71 -4q-24 -2 -39 -14.5 t-15 -32.5q0 -16 5.5 -34t16 -42.5t13.5 -32.5l172 -446l207 516q8 20 8 45q0 17 -15 28t-40 13l-68 4v78q95 -6 191 -6q95 0 190 6v-78zM885 1325q0 -33 -19 -57.5t-69 -55.5l-285 -176h-115l265 303q67 76 133 76q40 0 65 -24.5t25 -65.5z" />
<glyph unicode="&#xfe;" horiz-adv-x="1251" d="M1153 586q0 -139 -54 -255t-155 -192q-16 -13 -35 -26q-104 -83 -165.5 -115.5t-114.5 -32.5q-62 0 -183 35v-317q0 -83 13.5 -106.5t60.5 -25.5l92 -4v-75q-147 6 -297 6q-132 0 -264 -6v75l72 4q48 3 61 26t13 106v1480q0 90 -10 116t-44 28l-108 6v73q155 16 248 44 l147 45l16 -13v-678l125 101q54 43 102.5 61.5t108.5 18.5q160 0 265.5 -108t105.5 -271zM895 453q0 154 -67 240.5t-185 86.5q-129 0 -197 -102v-461q80 -113 207 -113q112 0 177 94.5t65 254.5z" />
<glyph unicode="&#xff;" horiz-adv-x="1138" d="M1118 862l-53 -10q-45 -9 -84 -96l-408 -949q-78 -181 -165.5 -266.5t-194.5 -85.5q-73 0 -150 35l37 195l23 8q67 -76 143 -76q53 0 103.5 49.5t85.5 136.5l47 115l-324 827q-23 59 -43 85.5t-43 27.5l-72 4v78q135 -6 273 -6q135 0 270 6v-78l-71 -4q-24 -2 -39 -14.5 t-15 -32.5q0 -16 5.5 -34t16 -42.5t13.5 -32.5l172 -446l207 516q8 20 8 45q0 17 -15 28t-40 13l-68 4v78q95 -6 191 -6q95 0 190 6v-78zM936 1227q0 -57 -40 -97t-97 -40t-97 40.5t-40 98.5q0 56 40.5 95.5t98.5 39.5q55 0 95 -40.5t40 -96.5zM496 1227q0 -57 -40.5 -97 t-97.5 -40t-97 40t-40 97t40.5 97t98.5 40q55 0 95.5 -40.5t40.5 -96.5z" />
<glyph unicode="&#x152;" horiz-adv-x="2048" d="M2017 340l-22 -324l-10 -16q-159 -8 -289 -8l-330 6l-135 2q-106 2 -246 -18q-111 -17 -178 -17q-337 0 -528 197t-191 543q0 344 182 526q192 192 568 192q71 0 219 -18q132 -18 237 -16l383 6q20 0 58.5 1t54.5 1q91 0 192 -8l13 -15l-29 -291h-74l-16 154 q-2 17 -60 29t-141 12q-144 0 -297 -8v-492q41 -4 138 -4h135q64 0 88.5 9t27.5 34l13 117h82q-7 -130 -7 -219q0 -91 7 -221h-82l-13 102q-5 40 -31.5 58t-84.5 18h-135q-52 0 -138 -6v-547l269 -6q149 0 237 28l6 6l47 193h80zM1090 154v1063q-77 53 -133.5 72.5 t-131.5 19.5q-214 0 -322 -145.5t-108 -432.5q0 -310 119 -480.5t334 -170.5q73 0 126 16.5t116 57.5z" />
<glyph unicode="&#x153;" horiz-adv-x="1705" d="M1636 498q-163 -41 -323 -41h-269q3 -71 14 -114.5t36 -86.5q38 -66 108 -105.5t148 -39.5q63 0 116 15.5t125 55.5l25 -30l-45 -99q-96 -50 -165 -69t-155 -19q-110 0 -188.5 31t-144.5 100q-76 -70 -160.5 -100.5t-200.5 -30.5q-218 0 -338.5 130t-120.5 366 q0 244 131 374t377 130q110 0 187 -26.5t153 -90.5q86 63 158.5 90t157.5 27q167 0 270.5 -100t103.5 -261v-106zM1376 565q-3 152 -42.5 218.5t-127.5 66.5q-89 0 -129 -66t-45 -219l66 -2l98 -4h8zM797 420q0 226 -53.5 336t-163.5 110q-106 0 -154.5 -86t-48.5 -272 q0 -445 223 -445q104 0 150.5 84.5t46.5 272.5z" />
<glyph unicode="&#x178;" horiz-adv-x="1366" d="M1352 1350l-361 -535q-50 -75 -108 -205v-334v-60.5t2 -45t3.5 -34t8 -22t11.5 -16t17.5 -8t23.5 -5.5t32 -3l76 -6v-82q-159 6 -320 6q-158 0 -317 -6v82l76 6q21 2 32 3t23.5 5.5t17.5 8t11.5 16t8 22t3.5 34t2 45v60.5v285q-49 109 -90 174l-207 334 q-80 130 -132 167.5t-134 37.5v76l325 73q71 -42 122 -102t112 -176l219 -416l385 660h158v-39zM1098 1657q0 -57 -40 -97t-97 -40t-97.5 40.5t-40.5 98.5q0 56 41 95.5t99 39.5q55 0 95 -40.5t40 -96.5zM657 1657q0 -57 -40 -97t-97 -40t-97 40t-40 97t40.5 97t98.5 40 q55 0 95 -40.5t40 -96.5z" />
<glyph unicode="&#x2c6;" horiz-adv-x="681" d="M686 1049h-117l-229 200l-231 -200h-113l248 358h190z" />
<glyph unicode="&#x2dc;" horiz-adv-x="681" d="M715 1356q-37 -134 -95 -196t-147 -62q-65 0 -172 51q-97 47 -158 47q-65 0 -94 -96h-82q12 114 78.5 185t159.5 71q61 0 164 -49q105 -50 153 -50q37 0 57 19.5t48 79.5h88z" />
<glyph unicode="&#x2000;" horiz-adv-x="948" />
<glyph unicode="&#x2001;" horiz-adv-x="1896" />
<glyph unicode="&#x2002;" horiz-adv-x="948" />
<glyph unicode="&#x2003;" horiz-adv-x="1896" />
<glyph unicode="&#x2004;" horiz-adv-x="632" />
<glyph unicode="&#x2005;" horiz-adv-x="474" />
<glyph unicode="&#x2006;" horiz-adv-x="316" />
<glyph unicode="&#x2007;" horiz-adv-x="316" />
<glyph unicode="&#x2008;" horiz-adv-x="237" />
<glyph unicode="&#x2009;" horiz-adv-x="379" />
<glyph unicode="&#x200a;" horiz-adv-x="105" />
<glyph unicode="&#x2010;" horiz-adv-x="681" d="M649 604q-48 -107 -65 -205h-535l-16 17q49 138 69 209h529z" />
<glyph unicode="&#x2011;" horiz-adv-x="681" d="M649 604q-48 -107 -65 -205h-535l-16 17q49 138 69 209h529z" />
<glyph unicode="&#x2012;" horiz-adv-x="681" d="M649 604q-48 -107 -65 -205h-535l-16 17q49 138 69 209h529z" />
<glyph unicode="&#x2013;" d="M1024 426h-1024v170h1024v-170z" />
<glyph unicode="&#x2014;" horiz-adv-x="2048" d="M2048 426h-2048v170h2048v-170z" />
<glyph unicode="&#x2018;" horiz-adv-x="569" d="M510 1391q-115 -259 -152 -494q-148 -18 -270 -68l-29 27q97 218 287 512l135 55z" />
<glyph unicode="&#x2019;" horiz-adv-x="569" d="M510 1397q-95 -213 -287 -512l-135 -56l-29 33q115 259 152 494q157 19 270 67z" />
<glyph unicode="&#x201a;" horiz-adv-x="681" d="M565 240q-97 -218 -286 -512l-136 -56l-28 33q115 261 151 494q159 19 271 67z" />
<glyph unicode="&#x201c;" d="M520 1391q-114 -256 -151 -494q-150 -18 -271 -68l-28 27q99 223 286 512l136 55zM954 1391q-114 -256 -151 -494q-150 -18 -271 -68l-28 27q97 218 287 512l135 55z" />
<glyph unicode="&#x201d;" d="M520 1397q-95 -213 -287 -512l-135 -56l-28 33q114 256 151 494q159 19 271 67zM954 1397q-97 -218 -286 -512l-136 -56l-28 33q114 256 151 494q159 19 271 67z" />
<glyph unicode="&#x201e;" d="M520 240q-95 -213 -287 -512l-135 -56l-28 33q115 261 151 494q159 19 271 67zM954 240q-97 -218 -286 -512l-136 -56l-28 33q115 261 151 494q159 19 271 67z" />
<glyph unicode="&#x2022;" horiz-adv-x="1241" d="M973 705q0 -145 -103.5 -249t-246.5 -104q-148 0 -251.5 104.5t-103.5 252.5q0 141 105 244.5t248 103.5q145 0 248.5 -103.5t103.5 -248.5z" />
<glyph unicode="&#x2026;" horiz-adv-x="2048" d="M502 133q0 -63 -48.5 -110.5t-113.5 -47.5q-63 0 -110.5 47t-47.5 111q0 65 49 113.5t113 48.5q61 0 109.5 -49.5t48.5 -112.5zM1184 133q0 -63 -48.5 -110.5t-113.5 -47.5q-63 0 -110.5 47t-47.5 111q0 65 49 113.5t113 48.5q61 0 109.5 -49.5t48.5 -112.5zM1866 133 q0 -63 -48.5 -110.5t-113.5 -47.5q-63 0 -110.5 47t-47.5 111q0 65 49 113.5t113 48.5q61 0 109.5 -49.5t48.5 -112.5z" />
<glyph unicode="&#x202f;" horiz-adv-x="379" />
<glyph unicode="&#x2039;" horiz-adv-x="796" d="M629 131l-56 -41q-250 255 -405 383v51q277 243 405 373l56 -45l-226 -354z" />
<glyph unicode="&#x203a;" horiz-adv-x="796" d="M629 473q-158 -130 -406 -383l-55 41l225 367l-225 354l55 45q127 -130 406 -373v-51z" />
<glyph unicode="&#x205f;" horiz-adv-x="474" />
<glyph unicode="&#x20ac;" d="M1040 74l-12 -23q-55 -42 -149 -64t-177 -22q-108 0 -195 32.5t-144.5 85.5t-98 127t-61 149.5t-29.5 160.5q-104 0 -160 -6l43 123q24 -4 35 -4h76v115q-80 0 -145 -7l43 123q28 -4 38 -4h78q11 77 34 145t64.5 133t98 111.5t139.5 74.5t184 28q80 0 175 -23.5 t151 -66.5l12 -23q-23 -85 -43 -248h-79l-7 178q-31 34 -87.5 57t-129.5 23q-65 0 -115 -32.5t-81.5 -89.5t-49.5 -123t-26 -144q411 0 452 4l-40 -123q-72 7 -420 7q-2 -31 -2 -70v-45q342 0 383 4l-43 -123q-61 6 -334 6q6 -85 22.5 -159t47.5 -143t85 -109.5t125 -40.5 q73 0 127.5 22.5t85.5 56.5l7 179h79q21 -170 43 -252z" />
<glyph unicode="&#x2122;" horiz-adv-x="2043" d="M819 1384q-10 -56 -14 -174h-60l-6 76q-13 29 -71 29h-117v-486q0 -86 39 -88l45 -4v-55l-178 2l-178 -2v55l45 4q38 2 38 88v486h-114q-22 0 -34 -1t-24.5 -7t-13.5 -19l-6 -78h-59q-9 131 -17 174q2 1 12 11q117 -4 351 -4q233 0 350 4q10 -10 12 -11zM1950 1395v-56 l-45 -2q-13 -1 -21.5 -9.5t-12 -23.5t-4.5 -27.5t-1 -31.5v-416q0 -26 1.5 -41.5t11 -30.5t26.5 -16l45 -4v-57q-118 4 -181 4q-58 0 -176 -4v57l45 4q39 2 39 88v377l-209 -393q-42 -76 -69 -139h-56l-43 90l-235 444v-379q0 -87 47 -92l45 -4v-53q-86 4 -131 4 q-43 0 -133 -4v53l45 4q47 5 47 92v416q0 87 -47 92l-45 2v56q45 -4 137 -4q99 0 148 4l86 -172l166 -314l194 365l57 121q45 -4 134 -4q90 0 135 4z" />
<glyph unicode="&#x25fc;" horiz-adv-x="962" d="M0 963h963v-963h-963v963z" />
</font>
</defs>
</svg>
