<?xml version="1.0" standalone="no"?>
<!DOCTYPE svg PUBLIC "-//W3C//DTD SVG 1.1//EN" "http://www.w3.org/Graphics/SVG/1.1/DTD/svg11.dtd" >
<svg xmlns="http://www.w3.org/2000/svg" xmlns:xlink="http://www.w3.org/1999/xlink" version="1.1">
<metadata></metadata>
<defs>
<font id="tex_gyre_pagellaregular" horiz-adv-x="1024" >
<font-face units-per-em="2048" ascent="1487" descent="-561" />
<missing-glyph horiz-adv-x="512" />
<glyph unicode="&#xfb01;" horiz-adv-x="1239" d="M698 1311l-24 -13q-37 32 -68.5 45t-73.5 13q-60 0 -89.5 -25t-41.5 -85.5t-12 -182.5v-174q148 0 268 8l-14 -109h-254v-579q0 -98 12 -121.5t64 -26.5l94 -6v-61q-129 6 -256 6t-256 -6v61l94 6q52 3 64 26.5t12 121.5v579l-141 -8v45l141 64v86q0 196 86 295l119 135 q34 39 83.5 62.5t98.5 23.5q32 0 94 -23v-157zM1202 -6q-129 6 -256 6t-256 -6v61l94 6q52 3 64 26.5t12 121.5v457q0 72 -6 100.5t-23 38.5t-61 10h-76v57q185 21 320 89l18 -15v-737q0 -98 12 -121.5t64 -26.5l94 -6v-61zM1069 1292q0 -44 -35 -78t-80 -34q-44 0 -78 34 t-34 78q0 46 34 80.5t80 34.5q43 0 78 -35.5t35 -79.5z" />
<glyph unicode="&#xfb02;" horiz-adv-x="1245" d="M1208 -6q-129 6 -256 6t-256 -6v61l95 6q52 3 63.5 26.5t11.5 121.5v1032q0 113 -51 113h-86v-43l-45 -13q-46 33 -79.5 45.5t-74.5 12.5q-86 0 -113.5 -57.5t-27.5 -235.5v-174q148 0 268 8l-14 -109h-254v-579q0 -98 12 -121.5t64 -26.5l106 -6v-61q-132 6 -266 6 q-129 0 -258 -6v61l94 6q52 3 64 26.5t12 121.5v579l-141 -8v45l141 64v86q0 196 86 295l119 135q35 40 84 63t96 23q30 0 82 -12q6 -1 19 -5t26 -6v-57q194 41 291 76l18 -21v-1257q0 -98 12 -121.5t64 -26.5l94 -6v-61z" />
<glyph unicode="&#xfb03;" horiz-adv-x="1837" d="M1661 1292q0 -44 -35 -78t-80 -34q-44 0 -78 34t-34 78q0 46 34 80.5t80 34.5q43 0 78 -35.5t35 -79.5zM1794 -6q-129 6 -256 6t-256 -6v61l94 6q52 3 64 26.5t12 121.5v457q0 72 -6 100.5t-23 38.5t-61 10h-76v57q185 21 320 89l18 -15v-737q0 -98 12 -121.5t64 -26.5 l94 -6v-61zM1290 1311l-24 -13q-37 32 -68.5 45t-73.5 13q-88 0 -115.5 -57t-27.5 -236v-174l248 8l-15 -109h-233v-579q0 -98 12 -121.5t64 -26.5l106 -6v-61q-132 6 -266 6q-129 0 -258 -6v61l94 6q52 3 64 26.5t12 121.5v579h-420v-579q0 -98 12 -121.5t64 -26.5l94 -6 v-61q-129 6 -256 6t-256 -6v61l94 6q52 3 64 26.5t12 121.5v579l-141 -8v45l141 64v86q0 196 86 295l119 135q35 40 84 63t96 23q37 0 96 -23v-157l-24 -13q-37 32 -68.5 45t-73.5 13q-88 0 -115.5 -57t-27.5 -236v-174h420v86q0 196 86 295l119 135q35 40 84 63t96 23 q37 0 96 -23v-157z" />
<glyph unicode="&#xfb04;" horiz-adv-x="1843" d="M1802 -6q-129 6 -256 6t-256 -6v61l94 6q52 3 64 26.5t12 121.5v1032q0 113 -51 113h-86v-43l-45 -13q-46 33 -79.5 45.5t-74.5 12.5q-86 0 -113.5 -57.5t-27.5 -235.5v-174l268 8l-14 -109h-254v-579q0 -98 12 -121.5t64 -26.5l106 -6v-61q-132 6 -266 6q-129 0 -258 -6 v61l94 6q52 3 64 26.5t12 121.5v579h-422v-579q0 -98 12 -121.5t64 -26.5l94 -6v-61q-129 6 -256 6t-256 -6v61l94 6q52 3 64 26.5t12 121.5v579l-141 -8v45l141 64v86q0 196 86 295l119 135q35 40 84 63t96 23q37 0 96 -23v-157l-24 -13q-37 32 -68.5 45t-73.5 13 q-88 0 -115.5 -57t-27.5 -236v-174h422v86q0 196 86 295l119 135q35 40 84 63t96 23q30 0 82 -12q6 -1 19 -5t26 -6v-57q194 41 291 76l18 -21v-1257q0 -98 12 -121.5t64 -26.5l94 -6v-61z" />
<glyph horiz-adv-x="0" />
<glyph horiz-adv-x="682" />
<glyph unicode=" "  horiz-adv-x="512" />
<glyph unicode="&#x09;" horiz-adv-x="512" />
<glyph unicode="&#xa0;" horiz-adv-x="512" />
<glyph unicode="!" horiz-adv-x="569" d="M403 109q0 -47 -36.5 -83t-85.5 -36q-44 0 -79.5 36.5t-35.5 82.5t35.5 82t81.5 36q47 0 83.5 -36t36.5 -82zM397 1370q0 -76 -14 -194l-59 -668v-51l-58 -47l-20 10l-4 82l-68 841l154 78h69v-51z" />
<glyph unicode="&#x22;" horiz-adv-x="759" d="M281 1362l-66 -401h-41l-68 401v10q0 29 28.5 54.5t60.5 25.5t59 -25t27 -53v-12zM651 1362l-65 -401h-41l-68 401v10q0 29 28 54.5t60 25.5t59 -25t27 -53v-12z" />
<glyph unicode="#" d="M1014 858h-215l-41 -285h205v-114h-224l-63 -459h-119l64 459h-275l-67 -459h-119l67 459h-219v114h238l43 285h-226v115h242l64 428h118l-63 -428h272l62 428h119l-62 -428h199v-115zM680 858h-272l-43 -285h274z" />
<glyph unicode="$" d="M965 424q0 -116 -51 -211t-148 -158q-51 -34 -100 -52.5t-134 -35.5l9 -205h-92q3 30 8 201q-188 3 -396 86q18 122 25 303h66v-131q0 -37 4.5 -51t23.5 -33q82 -80 277 -100v571q-121 13 -185 31.5t-108 52.5q-103 75 -103 246q0 232 181 350q45 30 90.5 46t124.5 30 l-8 133h92q-7 -70 -9 -127q123 -9 195.5 -28t144.5 -60q-26 -98 -26 -258h-66v86q0 58 -9 82.5t-38 44.5q-75 48 -201 59v-532q132 -13 202 -32.5t120 -55.5q111 -80 111 -252zM803 354q0 112 -60 166.5t-211 77.5v-561q124 22 197.5 107.5t73.5 209.5zM457 776v514 q-55 -6 -86 -17t-62 -36q-94 -76 -94 -225q0 -112 55 -165.5t187 -70.5z" />
<glyph unicode="%" horiz-adv-x="1720" d="M727 1096q0 -148 -94.5 -245t-237.5 -97q-137 0 -226 89t-89 226q0 149 95 245.5t241 96.5q133 0 222 -90t89 -225zM580 1092q0 126 -46 199t-124 73q-85 0 -134 -77.5t-49 -209.5t44 -204t126 -72q83 0 133 79.5t50 211.5zM1642 342q0 -148 -94 -245t-237 -97 q-137 0 -226.5 89.5t-89.5 225.5q0 149 95 245.5t241 96.5q133 0 222 -90t89 -225zM1495 338q0 126 -46 199t-124 73q-85 0 -133.5 -77t-48.5 -209t44 -204.5t126 -72.5q83 0 132.5 79.5t49.5 211.5zM1262 1452l-750 -1493h-82l750 1493h82z" />
<glyph unicode="&#x26;" horiz-adv-x="1593" d="M1542 100l-178 -129q-18 -12 -70 -12q-73 0 -176.5 44.5t-193.5 113.5q-109 -85 -205 -121.5t-209 -36.5q-183 0 -302.5 111t-119.5 282q0 154 109 281q42 47 85.5 81t123.5 79q-62 157 -62 272q0 133 49 176l139 123q53 47 136 47q95 0 147.5 -48t52.5 -136 q0 -139 -131 -279q-56 -56 -164 -135q86 -140 184 -262.5t234 -261.5q55 73 77 124t22 107q0 63 -16.5 110.5t-39.5 53.5q-40 10 -178 21l68 92l198 -4q69 0 168.5 3.5t164.5 7.5l65 3q-25 -82 -25 -148q-121 18 -287 25q11 -43 11 -80q0 -97 -37.5 -179t-128.5 -183 q131 -75 204 -102t148 -27q43 0 125 39zM860 168q-176 197 -266 313.5t-158 239.5q-94 -74 -132 -139t-38 -154q0 -142 101.5 -248t238.5 -106q117 0 254 94zM731 1165q0 59 -34 98.5t-85 39.5q-61 0 -93 -42t-32 -120q0 -99 54 -258q85 60 137.5 136.5t52.5 145.5z" />
<glyph unicode="'" horiz-adv-x="425" d="M299 1362l-66 -401h-40l-68 401v10q0 29 28 54.5t60 25.5t59 -25t27 -53v-12z" />
<glyph unicode="(" horiz-adv-x="681" d="M616 -397l-38 -43q-127 120 -190 196t-116 178q-149 280 -149 611q0 231 80 438q59 151 137 256.5t238 247.5l38 -53q-113 -131 -166.5 -222.5t-91.5 -218.5q-59 -191 -59 -448q0 -262 63 -477q40 -138 92 -233.5t162 -231.5z" />
<glyph unicode=")" horiz-adv-x="681" d="M559 543q0 -380 -190 -682q-47 -74 -102.5 -137t-162.5 -164l-38 43q110 136 161.5 231t91.5 234q64 219 64 477q0 250 -61 448q-39 127 -91.5 218.5t-164.5 222.5l38 53q160 -145 238.5 -250t136.5 -254q80 -207 80 -440z" />
<glyph unicode="*" horiz-adv-x="796" d="M735 999l-18 -16l-283 41l139 -250v-20l-139 -54l-20 9l-37 290l-217 -180h-21l-73 105l10 18l268 111l-268 131l-6 20l90 107h20l195 -201l53 293l18 8l127 -39l7 -31l-142 -256l285 50l12 -9v-127z" />
<glyph unicode="+" horiz-adv-x="1241" d="M1159 455h-481v-482h-115v482h-481v114h481v482h115v-482h481v-114z" />
<glyph unicode="," horiz-adv-x="512" d="M446 223q-43 -118 -109.5 -229t-191.5 -273l-84 -38l-28 22q90 149 132 259t52 226q88 25 201 62z" />
<glyph unicode="-" horiz-adv-x="681" d="M639 578l-61 -138h-533l-10 11l55 137h539z" />
<glyph unicode="." horiz-adv-x="512" d="M375 109q0 -47 -37 -83t-86 -36q-44 0 -79.5 36.5t-35.5 82.5t35.5 82t81.5 36q47 0 84 -36t37 -82z" />
<glyph unicode="/" horiz-adv-x="1241" d="M1063 1487l-762 -1731h-123l762 1731h123z" />
<glyph unicode="0" d="M952 750q0 -791 -465 -791q-95 0 -177 41.5t-136 116.5t-84.5 221t-30.5 326q0 372 121 559.5t359 187.5q211 0 312 -162t101 -499zM780 647q0 370 -64.5 531t-213.5 161q-146 0 -208.5 -139t-62.5 -463q0 -374 66.5 -540t216.5 -166q141 0 203.5 144.5t62.5 471.5z" />
<glyph unicode="1" d="M856 -6q-159 6 -321 6q-168 0 -338 -6v61l114 6q83 4 108 30t25 106v993q0 67 -16 67l-6 -2l-264 -118h-21l-14 88q284 101 465 196l28 -10v-1214q0 -80 25 -106t109 -30l106 -6v-61z" />
<glyph unicode="2" d="M958 -6q-234 6 -469 6q-228 0 -456 -6v53l348 371q173 184 245 309.5t72 241.5q0 130 -78 207t-210 77q-103 0 -161 -40.5t-83 -129.5l-27 -94h-59l35 279q75 76 156.5 109.5t191.5 33.5q195 0 307.5 -102t112.5 -279q0 -116 -55.5 -217.5t-204.5 -259.5l-373 -395 l708 20q-4 -45 -4 -92q0 -49 4 -92z" />
<glyph unicode="3" d="M946 459q0 -146 -104 -271q-85 -103 -213.5 -166t-251.5 -63q-119 0 -275 53q-17 144 -71 301l55 21q29 -83 53.5 -126t61.5 -77q94 -88 239 -88q143 0 229.5 94.5t86.5 251.5q0 140 -71 217.5t-198 77.5q-72 0 -172 -45l-14 12l25 109q80 -6 96 -6q109 0 187.5 83.5 t78.5 198.5q0 97 -71.5 167.5t-170.5 70.5q-80 0 -160.5 -43.5t-97.5 -95.5l-36 -115h-64l59 254q74 74 150 105.5t180 31.5q170 0 274.5 -83.5t104.5 -219.5q0 -91 -51 -169t-174 -173q76 -13 119 -28.5t81 -43.5q55 -38 85 -99.5t30 -135.5z" />
<glyph unicode="4" d="M967 -6q-156 6 -314 6q-162 0 -329 -6v61l127 6q75 3 98.5 33.5t23.5 122.5v154h-546l-23 47l580 948l151 55l25 -10q-15 -126 -15 -625v-284h56l166 6v-146q-85 9 -222 9v-154q0 -92 24 -121.5t99 -34.5l99 -6v-61zM573 502v721l-440 -721h440z" />
<glyph unicode="5" d="M940 518q0 -232 -190 -401q-85 -74 -189.5 -116t-206.5 -42q-137 0 -227 49q-39 122 -100 273l49 28l94 -168q22 -40 90 -65t152 -25q167 0 260.5 95.5t93.5 265.5q0 166 -86 263t-234 97q-74 0 -126 -26t-125 -99l-41 12q12 180 12 461l-4 281l10 10q217 -10 356 -10 q62 0 151 2.5t147 4.5l59 3l10 -10q-4 -37 -4 -82q0 -43 4 -80l-10 -10l-625 10l-18 -428q96 57 161 79.5t138 22.5q175 0 287 -111t112 -284z" />
<glyph unicode="6" d="M958 449q0 -210 -132.5 -350t-331.5 -140q-198 0 -313 147t-115 400q0 211 83.5 393t241.5 315q77 67 156 107t229 90l76 -35v-16q-277 -83 -414.5 -243.5t-169.5 -438.5q109 90 177.5 125t154.5 35q163 0 260.5 -106t97.5 -283zM782 377q0 152 -71.5 245t-188.5 93 q-73 0 -139 -33t-100 -86q-31 -47 -31 -145q0 -206 69 -315t199 -109q119 0 190.5 95.5t71.5 254.5z" />
<glyph unicode="7" d="M1018 1350l-375 -674q-125 -224 -185.5 -355.5t-135.5 -326.5q-58 6 -95 6l-94 -6l-18 26l499 803q105 169 224 412h-547q-71 0 -92 -24t-33 -119l-14 -115h-62q6 127 6 209l-6 215l21 10q249 -10 448 -10q183 0 459 10v-61z" />
<glyph unicode="8" d="M950 422q0 -125 -66 -231.5t-178 -169t-243 -62.5q-173 0 -287.5 104.5t-114.5 262.5q0 157 119 276q34 33 68 54.5t96 50.5q-135 88 -185 158.5t-50 174.5q0 161 119 266t302 105q163 0 263 -81.5t100 -213.5q0 -92 -56 -166t-196 -170q175 -80 242 -157.5t67 -200.5z M788 336q0 83 -54.5 154t-151.5 114l-164 74q-114 -69 -162.5 -146t-48.5 -190q0 -142 78 -227.5t209 -85.5q124 0 209 89t85 218zM754 1094q0 112 -67.5 179.5t-180.5 67.5q-109 0 -176.5 -63t-67.5 -164q0 -153 195 -248l112 -55q100 64 142.5 129.5t42.5 153.5z" />
<glyph unicode="9" d="M936 854q0 -206 -77 -379.5t-226 -300.5q-82 -70 -173 -114.5t-263 -100.5l-70 35v16q278 67 438 247.5t172 438.5l-143 -118q-28 -23 -81 -38.5t-105 -15.5q-160 0 -263.5 115.5t-103.5 292.5q0 205 131 342t328 137q203 0 319.5 -149t116.5 -408zM758 965 q0 147 -62 258q-66 120 -204 120q-126 0 -200.5 -90t-74.5 -245q0 -160 76 -259.5t199 -99.5q119 0 192.5 87.5t73.5 228.5z" />
<glyph unicode=":" horiz-adv-x="512" d="M373 109q0 -47 -37 -83t-86 -36q-44 0 -79.5 36.5t-35.5 82.5t35.5 82t81.5 36q47 0 84 -36t37 -82zM373 813q0 -46 -37 -81.5t-86 -35.5q-44 0 -79.5 36.5t-35.5 82.5t35.5 82.5t81.5 36.5q47 0 84 -37t37 -84z" />
<glyph unicode=";" horiz-adv-x="512" d="M446 227q-42 -118 -109 -228t-192 -273l-84 -39l-28 22q90 148 132 258.5t52 227.5q112 32 201 61zM428 813q0 -46 -37 -81.5t-86 -35.5q-44 0 -79.5 36.5t-35.5 82.5t35.5 82.5t81.5 36.5q47 0 84 -37t37 -84z" />
<glyph unicode="&#x3c;" horiz-adv-x="1241" d="M1077 41l-936 418v106l936 418v-127l-772 -344l772 -344v-127z" />
<glyph unicode="=" horiz-adv-x="1241" d="M1159 633h-1077v115h1077v-115zM1159 279h-1077v114h1077v-114z" />
<glyph unicode="&#x3e;" horiz-adv-x="1241" d="M1077 459l-936 -418v127l772 344l-772 344v127l936 -418v-106z" />
<glyph unicode="?" horiz-adv-x="909" d="M809 1106q0 -87 -47 -161.5t-178 -194.5q-125 -113 -159 -157t-34 -95q0 -46 45 -99l-43 -28q-90 58 -90 149q0 53 32 106t126 156q90 99 123.5 159t33.5 122q0 98 -70.5 160.5t-180.5 62.5q-143 0 -179 -86l-41 -98l-59 16l78 232q81 39 141.5 55t128.5 16 q158 0 265.5 -90.5t107.5 -224.5zM526 109q0 -47 -37 -83t-86 -36q-44 0 -79 36.5t-35 82.5t35.5 82t81.5 36q47 0 83.5 -36t36.5 -82z" />
<glyph unicode="@" horiz-adv-x="1529" d="M1483 838q0 -103 -41.5 -206.5t-107.5 -181.5t-153.5 -127t-174.5 -49q-68 0 -108.5 44.5t-47.5 127.5q-76 -96 -127.5 -128.5t-124.5 -32.5q-114 0 -193 83.5t-79 204.5q0 120 62.5 228.5t165.5 174.5t216 66q74 0 117.5 -39.5t62.5 -123.5l37 143h180l-157 -571 q-13 -46 -2 -81.5t45 -35.5q75 0 150.5 74t123 190t47.5 231q0 211 -160 350.5t-401 139.5q-184 0 -333 -81.5t-233.5 -225.5t-84.5 -322q0 -133 50 -250t137 -200t209.5 -131t262.5 -48q134 0 250 52q87 39 145.5 88.5t131.5 148.5h125q-48 -79 -80.5 -120t-81.5 -83 q-212 -188 -504 -188q-157 0 -297.5 56t-241.5 152t-160 229t-59 282q0 206 99.5 376.5t273 268.5t383.5 98q188 0 343.5 -77t245 -210.5t89.5 -295.5zM911 840q0 64 -29.5 105.5t-76.5 41.5q-98 0 -180 -119q-49 -72 -83 -172.5t-34 -175.5q0 -82 33.5 -131t89.5 -49 q103 0 180 139q43 75 71.5 179t28.5 182z" />
<glyph unicode="A" horiz-adv-x="1593" d="M1548 -6q-129 6 -260 6q-143 0 -284 -6v61l96 6q84 7 84 41q0 25 -43 131l-94 236h-590l-58 -137q-71 -168 -71 -217q0 -25 22 -37.5t76 -16.5l76 -6v-61q-123 6 -248 6q-112 0 -223 -6v61l75 6q68 6 111 101l453 1028q35 77 60 138t32 84l8 22h66l495 -1164 q56 -128 82.5 -167t65.5 -42l69 -6v-61zM1010 551l-258 610l-260 -610h518z" />
<glyph unicode="B" horiz-adv-x="1251" d="M1180 467q0 -108 -51.5 -206.5t-141.5 -162.5q-141 -104 -377 -104q-42 0 -127 3t-127 3q-112 0 -223 -6v47l53 20q45 16 45 134v970q0 45 -1 70t-5 48t-9.5 33t-19 18.5t-28.5 11t-41 4.5l-74 6v61q163 -6 324 -6q61 0 182.5 3t183.5 3q367 0 367 -278q0 -159 -149 -262 q-43 -30 -87 -46.5t-118 -31.5q119 -9 183 -27.5t122 -60.5q119 -84 119 -244zM969 426q0 164 -99 241.5t-307 77.5q-57 0 -137 -4v-645q68 -16 158 -16q183 0 284 91.5t101 254.5zM907 1092q0 127 -75 185t-240 58q-95 0 -166 -16v-498q63 -4 125 -4q174 0 265 70.5 t91 204.5z" />
<glyph unicode="C" horiz-adv-x="1452" d="M1372 172l-57 -102q-211 -111 -465 -111q-238 0 -421 92.5t-283.5 261t-100.5 387.5q0 207 90.5 366.5t265.5 262.5q211 123 486 123q217 0 473 -84q-36 -169 -39 -311h-64v147q0 39 -59.5 77t-154.5 61.5t-193 23.5q-264 0 -425 -172t-161 -455q0 -302 183 -485.5 t483 -183.5q234 0 424 123z" />
<glyph unicode="D" horiz-adv-x="1585" d="M1538 788q0 -164 -63.5 -320t-174.5 -265q-212 -209 -602 -209q-49 0 -148.5 3t-148.5 3q-143 0 -284 -6v47l63 33q51 25 51 121v970q0 120 -17 150.5t-87 34.5l-82 6v61q212 -6 422 -6q59 0 177.5 3t178.5 3q324 0 519.5 -171.5t195.5 -457.5zM1319 735q0 306 -145 451 q-149 149 -521 149q-142 0 -227 -16v-1219q71 -16 211 -16q173 0 279 30t198 105q205 169 205 516z" />
<glyph unicode="E" horiz-adv-x="1251" d="M1171 336q-32 -170 -32 -336l-342 -6q-237 6 -475 6q-126 0 -252 -6v61l73 6q32 3 48.5 7.5t29.5 13.5t18 31.5t7 51t2 81.5v919q0 65 -2.5 97t-15 53.5t-31 27t-56.5 7.5l-98 6v61q181 -6 365 -6q238 0 475 6l254 -6q-33 -129 -33 -311h-72v133q0 36 -9.5 48t-45.5 22 q-103 28 -297 28q-107 0 -150 -3t-90 -13v-547q120 -8 328 -8q72 0 102 14t41 64q4 17 7 43.5t4 44.5v18h61q-6 -120 -6 -237q0 -114 6 -228h-61q-3 76 -11 121q-10 48 -40 62t-103 14l-328 -6v-574q79 -16 203 -16q303 0 377 24q22 8 40.5 52t27.5 110l10 70h71z" />
<glyph unicode="F" horiz-adv-x="1138" d="M1098 1411q-33 -129 -33 -311h-72v133q0 36 -9.5 48.5t-45.5 21.5q-110 28 -276 28q-150 0 -220 -16v-547q120 -8 324 -8q76 0 109.5 14.5t37.5 63.5l11 106h61q-6 -120 -6 -237q0 -114 6 -228h-61q-3 76 -11 121q-10 48 -40 62t-103 14l-328 -6v-424q0 -65 2.5 -97 t15 -53.5t31 -27t56.5 -7.5l98 -6v-61q-150 6 -301 6q-149 0 -299 -6v61l98 6q38 2 56.5 7.5t31 27t15 53.5t2.5 97v919q0 65 -2.5 97t-15 53.5t-31 27t-56.5 7.5l-98 6v61q181 -6 361 -6q222 0 442 6z" />
<glyph unicode="G" horiz-adv-x="1562" d="M1491 504l-59 -21q-15 -6 -19 -17.5t-4 -57.5v-345q-209 -59 -332.5 -81.5t-232.5 -22.5q-177 0 -334.5 59t-265.5 164q-96 96 -147.5 229t-51.5 287q0 169 63 309.5t177 238.5t277.5 152t359.5 54q123 0 223.5 -17t271.5 -67q-41 -157 -41 -311h-63v108q0 58 -40 96.5 t-130 67.5q-115 37 -275 37q-287 0 -445.5 -164.5t-158.5 -460.5q0 -319 179.5 -507.5t484.5 -188.5q102 0 182.5 19.5t97.5 48.5q13 23 13 88v207q0 36 -15.5 52t-54.5 19l-170 15v61q126 -6 250 -6q126 0 252 6z" />
<glyph unicode="H" horiz-adv-x="1703" d="M1659 -6q-150 6 -301 6q-149 0 -299 -6v61l98 6q38 2 56.5 7.5t31 27t15 53.5t2.5 97v456q-69 5 -170 5h-480q-101 0 -170 -5v-456q0 -65 2.5 -97t15 -53.5t31 -27t56.5 -7.5l98 -6v-61q-150 6 -301 6q-149 0 -299 -6v61l98 6q38 2 56.5 7.5t31 27t15 53.5t2.5 97v919 q0 65 -2.5 97t-15 53.5t-31 27t-56.5 7.5l-98 6v61q150 -6 299 -6q151 0 301 6v-61l-98 -6q-38 -2 -56.5 -7.5t-31 -27t-15 -53.5t-2.5 -97v-364q82 -4 170 -4h480q84 0 170 4v364q0 65 -2.5 97t-15 53.5t-31 27t-56.5 7.5l-98 6v61q150 -6 299 -6q151 0 301 6v-61l-98 -6 q-38 -2 -56.5 -7.5t-31 -27t-15 -53.5t-2.5 -97v-919q0 -65 2.5 -97t15 -53.5t31 -27t56.5 -7.5l98 -6v-61z" />
<glyph unicode="I" horiz-adv-x="690" d="M645 -6q-150 6 -301 6q-149 0 -299 -6v61l98 6q38 2 56.5 7.5t31 27t15 53.5t2.5 97v919q0 65 -2.5 97t-15 53.5t-31 27t-56.5 7.5l-98 6v61q150 -6 299 -6q151 0 301 6v-61l-98 -6q-38 -2 -56.5 -7.5t-31 -27t-15 -53.5t-2.5 -97v-919q0 -65 2.5 -97t15 -53.5t31 -27 t56.5 -7.5l98 -6v-61z" />
<glyph unicode="J" horiz-adv-x="681" d="M637 1356l-98 -6q-38 -2 -56.5 -7.5t-31 -27t-15 -53.5t-2.5 -97v-925q0 -186 -26 -283.5t-101 -189.5q-59 -74 -142 -123t-136 -43l-49 6l-11 155l23 13q66 -41 137 -41q62 0 86.5 51t24.5 180v1200q0 65 -2.5 97t-15 53.5t-31 27t-56.5 7.5l-98 6v61q150 -6 299 -6 q151 0 301 6v-61z" />
<glyph unicode="K" horiz-adv-x="1486" d="M1473 -6q-67 6 -134 6q-81 0 -163 -6l-713 686l-21 -14v-420q0 -65 2.5 -97t15 -53.5t31 -27t56.5 -7.5l98 -6v-61q-150 6 -301 6q-149 0 -299 -6v61l98 6q38 2 56.5 7.5t31 27t15 53.5t2.5 97v919q0 65 -2.5 97t-15 53.5t-31 27t-56.5 7.5l-98 6v61q150 -6 299 -6 q151 0 301 6v-61l-98 -6q-38 -2 -56.5 -7.5t-31 -27t-15 -53.5t-2.5 -97v-438l570 555q59 59 59 80v55q92 -6 182 -6q81 0 164 6v-61l-86 -4q-76 -3 -160 -78l-544 -492l676 -639q48 -45 76 -64t51 -20l43 -4v-61z" />
<glyph unicode="L" horiz-adv-x="1251" d="M1200 352q-22 -222 -43 -352q-279 -6 -344 -6q-80 0 -238.5 3t-238.5 3q-101 0 -203 -6v47l64 33q51 25 51 121v970q0 65 -2.5 97t-15 53.5t-31 27t-56.5 7.5l-98 6v61q150 -6 299 -6q151 0 301 6v-61l-98 -6q-38 -2 -56.5 -7.5t-31 -27t-15 -53.5t-2.5 -97v-1069 q71 -16 174 -16q184 0 306.5 10t142.5 27q19 15 45 133l25 102h65z" />
<glyph unicode="M" horiz-adv-x="1937" d="M1896 -6q-153 6 -309 6q-130 0 -262 -6v61l70 6q26 2 41 4.5t28.5 11t19 18.5t9.5 33t5 48t1 70v938l-90 -176l-365 -775q-21 -45 -52.5 -124.5t-57.5 -135.5h-41l-571 1211v-938q0 -120 17 -150.5t87 -34.5l90 -6v-61q-123 6 -246 6q-117 0 -237 -6v61l90 6 q70 4 87 34.5t17 150.5v919q0 120 -17 150.5t-87 34.5l-90 6v61q99 -6 194 -6q96 0 195 6l541 -1138l536 1138q99 -6 195 -6t190 6v-61l-86 -6q-70 -4 -87 -34.5t-17 -150.5v-919q0 -53 2 -81.5t7 -51t18 -32t29.5 -14t47.5 -6.5l98 -6v-61z" />
<glyph unicode="N" horiz-adv-x="1701" d="M1665 1356l-90 -6q-38 -2 -56.5 -8t-31 -27.5t-15 -53.5t-2.5 -96v-1130q0 -10 3.5 -38t3.5 -38l-185 33l-968 1202v-948q0 -120 17 -150.5t87 -34.5l90 -6v-61q-123 6 -246 6q-117 0 -237 -6v61l90 6q70 4 87 34.5t17 150.5v919q0 120 -17 150.5t-87 34.5l-90 6v61 q150 -6 246 -6l110 6l985 -1216v964q0 120 -17 150.5t-87 34.5l-90 6v61q120 -6 237 -6q123 0 246 6v-61z" />
<glyph unicode="O" horiz-adv-x="1609" d="M1565 752q0 -222 -105.5 -404t-290.5 -285.5t-411 -103.5q-204 0 -367 94.5t-254.5 263.5t-91.5 381q0 223 96.5 394.5t273.5 265.5t408 94q341 0 541.5 -189t200.5 -511zM1346 690q0 319 -147.5 497.5t-410.5 178.5q-252 0 -388 -154t-136 -438q0 -328 159 -528.5 t417 -200.5q238 0 372 170.5t134 474.5z" />
<glyph unicode="P" horiz-adv-x="1236" d="M1188 1100q0 -121 -65 -221t-179 -157.5t-252 -57.5q-60 0 -119 12l-20 74q70 -21 127 -21q134 0 218.5 87.5t84.5 225.5q0 146 -87 221.5t-253 75.5q-93 0 -201 -24v-1069q0 -65 2.5 -97t15 -53.5t31 -27t56.5 -7.5l98 -6v-61q-150 6 -301 6q-149 0 -299 -6v61l98 6 q38 2 56.5 7.5t31 27t15 53.5t2.5 97v919q0 79 -8.5 115.5t-30.5 51.5t-70 18l-92 6v61q187 -6 373 -6q58 0 174 3t174 3q195 0 307.5 -84.5t112.5 -232.5z" />
<glyph unicode="Q" horiz-adv-x="1609" d="M1565 -246l-172 -114q-131 26 -217 53l-304 94q-98 31 -159 31q-23 0 -58 -17l-120 -65l4 65q164 126 202 146q12 7 21 10l10 4q-330 0 -528.5 202t-198.5 539q0 165 56 305t156.5 237.5t244 152.5t313.5 55q344 0 547 -187t203 -505q0 -221 -107 -409t-293 -294 q-79 -46 -150.5 -65.5t-193.5 -30.5q64 -7 108 -21t140 -55q234 -100 375 -100q25 0 121 12v-43zM1346 686q0 322 -147 501t-411 179q-253 0 -388.5 -154.5t-135.5 -443.5q0 -152 43.5 -291.5t120.5 -236.5q155 -193 416 -193q242 0 372 166t130 473z" />
<glyph unicode="R" horiz-adv-x="1368" d="M1370 -6q-74 6 -147 6q-69 0 -140 -6l-84 110l-376 506q-49 67 -95 117v33h60q178 0 282.5 83t104.5 224q0 131 -86 201.5t-246 70.5q-96 0 -201 -24v-1069q0 -65 2.5 -97t15 -53.5t31 -27t56.5 -7.5l98 -6v-61q-150 6 -301 6q-149 0 -299 -6v61l98 6q38 2 56.5 7.5 t31 27t15 53.5t2.5 97v919q0 64 -2.5 96t-15 53.5t-31 27.5t-56.5 8l-84 6v61q178 -6 355 -6q62 0 183 3t183 3q198 0 299 -79t101 -228q0 -179 -164 -297q-51 -35 -100.5 -55.5t-135.5 -42.5l465 -606q20 -26 47.5 -37.5t77.5 -16.5v-61z" />
<glyph unicode="S" horiz-adv-x="1075" d="M1030 471q0 -147 -79 -264t-219 -182.5t-316 -65.5t-355 78q17 130 17 231q0 45 -2 82h65l17 -137q8 -63 109.5 -113.5t224.5 -50.5q160 0 263 90t103 228q0 114 -78 180q-40 34 -102 54.5t-180 37.5q-148 20 -229 47.5t-134 75.5q-86 80 -86 229q0 201 148.5 331 t377.5 130q86 0 167 -18.5t202 -67.5q-29 -161 -29 -289h-65l-12 117q-5 45 -25.5 72t-71.5 53q-83 47 -211 47q-135 0 -222 -83t-87 -212q0 -118 75 -175.5t263 -82.5q174 -24 254 -49.5t133 -75.5q84 -78 84 -217z" />
<glyph unicode="T" horiz-adv-x="1255" d="M1219 1417q-15 -176 -15 -330h-63l-8 162q-1 37 -20 52.5t-62 15.5h-318q-8 -91 -8 -205v-866q0 -53 2 -81.5t7 -51t18 -32t29.5 -14t47.5 -6.5l99 -6v-61q-150 6 -301 6q-149 0 -299 -6v61l98 6q31 2 47.5 6.5t29.5 14t18 32t7 51t2 81.5v866q0 112 -8 205h-317 q-43 0 -62 -15.5t-20 -52.5l-8 -162h-64q0 166 -14 330l416 -6h323z" />
<glyph unicode="U" horiz-adv-x="1593" d="M1554 1356l-90 -6q-70 -4 -87 -34.5t-17 -150.5v-592q0 -336 -141 -477q-134 -137 -445 -137q-308 0 -432 127q-115 118 -115 352v727q0 53 -2 81.5t-7 51t-18 32t-29.5 14t-47.5 6.5l-98 6v61q150 -6 299 -6q151 0 301 6v-61l-99 -6q-31 -2 -47.5 -6.5t-29.5 -14 t-18 -32t-7 -51t-2 -81.5v-704q0 -197 96.5 -286t310.5 -89q223 0 330 103.5t107 320.5v655q0 64 -2.5 96t-15 53.5t-31 27.5t-56.5 8l-90 6v61q120 -6 238 -6q122 0 245 6v-61z" />
<glyph unicode="V" horiz-adv-x="1478" d="M1446 1356l-62 -6q-28 -3 -51.5 -34t-58.5 -114l-356 -862q-85 -205 -132 -358h-102q-38 137 -119 337l-385 947q-19 44 -38.5 62.5t-51.5 21.5l-74 6v61q135 -6 273 -6q137 0 272 6v-61l-115 -6q-39 -1 -54 -20.5t-7 -43.5l403 -1038l375 969q25 54 13 92t-66 41l-106 6 v61q111 -6 221 -6t221 6v-61z" />
<glyph unicode="W" horiz-adv-x="2048" d="M2015 1356l-65 -6q-62 -6 -78 -60l-313 -1102l-56 -206h-102q-72 223 -146 421l-256 695l-356 -905q-50 -123 -74 -211h-102l-291 1265q-12 52 -35 75t-67 28l-58 6v61q129 -6 258 -6t258 6v-61l-86 -6q-56 -4 -69.5 -41t2.5 -95l205 -919l254 645q112 283 184 494h65 q6 -26 12 -47.5t11 -35t19.5 -54t25.5 -72.5l336 -944l270 1001q8 32 -12 48t-82 20l-82 6v61q108 -6 215 -6t215 6v-61z" />
<glyph unicode="X" horiz-adv-x="1366" d="M1327 -6q-73 6 -145 6q-76 0 -152 -6l-377 627l-413 -627q-52 6 -105 6q-54 0 -106 -6v61l53 6q33 4 57.5 24.5t63.5 74.5l399 538l-262 437q-50 84 -100.5 132.5t-87.5 51.5l-93 6l-4 53l289 56q29 -15 55.5 -45t61.5 -89l262 -442l379 553h207v-61l-84 -7 q-23 -2 -51 -29t-89 -110l-315 -426l360 -573q52 -82 79.5 -111.5t56.5 -32.5l61 -6v-61z" />
<glyph unicode="Y" horiz-adv-x="1366" d="M1339 1391q-121 -145 -194 -244t-191 -275q-89 -135 -118 -206t-29 -156v-264q0 -53 2 -81.5t7 -51t18 -32t29.5 -14t47.5 -6.5l99 -6v-61q-150 6 -301 6q-149 0 -299 -6v61l98 6q31 2 47.5 6.5t29.5 14t18 32t7 51t2 81.5v291q0 51 -18 81l-254 443 q-65 113 -137.5 186.5t-124.5 79.5l-60 6v60l246 51q28 0 83 -61.5t104 -149.5l292 -535l211 334q121 192 222 389h163v-30z" />
<glyph unicode="Z" horiz-adv-x="1366" d="M1307 354q-13 -147 -13 -360q-313 6 -624 6q-320 0 -639 -6v57q169 201 198 240l619 794q4 5 21.5 27t21.5 27t18.5 23.5t19 24.5l16.5 22t17.5 23.5t15 21.5t16 24.5t14.5 23t16 25.5h-467q-188 0 -247.5 -18t-63.5 -78l-13 -146h-69q6 114 6 166t-6 166h338 q92 0 237.5 -3t237.5 -3l319 6l9 -59l-996 -1268h559q85 0 134.5 1.5t93 7.5t63.5 14t36 27t21 40t9 58l12 116h70z" />
<glyph unicode="[" horiz-adv-x="681" d="M590 -365l-12 -12q-121 4 -199 4l-199 -4l-18 27q18 78 18 352v1106q0 274 -18 352l18 27q121 -4 199 -4l199 4l12 -12v-54l-8 -10h-78q-84 0 -125 -33q-15 -15 -21 -56.5t-6 -164.5v-1204q0 -123 6 -164.5t21 -56.5q41 -33 125 -33h78l8 -10v-54z" />
<glyph unicode="\" horiz-adv-x="1241" d="M1049 0h-121l-762 1487h121z" />
<glyph unicode="]" horiz-adv-x="681" d="M520 -350l-18 -27q-121 4 -199 4l-199 -4l-12 12v54l8 10h78q84 0 125 33q15 15 21 56.5t6 164.5v1204q0 123 -6 164.5t-21 56.5q-41 33 -125 33h-78l-8 10v54l12 12q121 -4 199 -4l199 4l18 -27q-18 -78 -18 -352v-1106q0 -274 18 -352z" />
<glyph unicode="^" horiz-adv-x="1241" d="M1135 580h-140l-374 692l-377 -692h-140l449 831h135z" />
<glyph unicode="_" d="M1024 -256h-1024v102h1024v-102z" />
<glyph unicode="`" horiz-adv-x="681" d="M522 1036h-82l-295 185q-51 32 -66.5 50t-15.5 46q0 29 19 49t45 20q46 0 113 -67z" />
<glyph unicode="a" d="M965 -6q-77 6 -152 6q-81 0 -160 -6l11 174l-254 -176q-24 -17 -86 -17q-122 0 -190 66t-68 186q0 134 93 211t302 115l203 37q-5 140 -69.5 201t-209.5 61q-71 0 -99 -19.5t-59 -91.5l-26 -63l-54 14v133l109 66q116 70 248 70q178 0 250.5 -91.5t72.5 -316.5v-375 q0 -75 10.5 -96t47.5 -23l80 -4v-61zM664 254v270q-244 -36 -320 -82q-46 -30 -74 -80t-28 -106q0 -66 45.5 -115t107.5 -49q60 0 142.5 49.5t126.5 112.5z" />
<glyph unicode="b" horiz-adv-x="1132" d="M1040 553q0 -112 -46.5 -223.5t-114.5 -161.5l-205 -148q-62 -45 -176 -45q-82 0 -142.5 17t-122.5 57l-81 -74l-33 13q16 163 16 325v957q0 46 -11.5 65t-39.5 19h-115v57q122 19 187.5 34.5t132.5 41.5l18 -17v-714l113 114q40 40 109.5 65.5t140.5 25.5 q163 0 266.5 -114.5t103.5 -293.5zM862 469q0 164 -75.5 261t-204.5 97q-131 0 -222 -94q-53 -59 -53 -102v-441q0 -34 89.5 -72t168.5 -38q131 0 214 108.5t83 280.5z" />
<glyph unicode="c" horiz-adv-x="909" d="M846 94l-43 -65q-15 -23 -108.5 -46.5t-172.5 -23.5q-206 0 -337.5 132t-131.5 339q0 135 56 241t163 173q184 117 336 117q118 0 238 -72q-29 -119 -29 -252h-57l-15 125q-28 38 -93 65t-132 27q-138 0 -212.5 -89t-74.5 -253q0 -202 103.5 -324t273.5 -122 q106 0 215 59z" />
<glyph unicode="d" horiz-adv-x="1251" d="M1186 -6q-92 6 -187 6q-78 0 -157 -6l10 188l-227 -190q-8 -6 -38.5 -11.5t-60.5 -5.5q-197 0 -299 86q-75 62 -115 160t-40 221q0 130 52 234.5t140 150.5l180 95q74 39 156 39q53 0 104.5 -14t139.5 -52v375q0 46 -11.5 65t-39.5 19h-115v57q121 19 186 34.5t133 41.5 l19 -17v-1261q0 -98 12 -121.5t64 -26.5l94 -6v-61zM844 453v264q0 25 -68 71q-112 76 -231 76q-138 0 -216.5 -93.5t-78.5 -260.5q0 -183 87 -300.5t222 -117.5q72 0 141.5 44t112.5 116q20 36 25.5 69t5.5 132z" />
<glyph unicode="e" horiz-adv-x="980" d="M918 571q0 -11 -1 -21.5t-2 -25t-2 -24.5q-178 -29 -370 -29h-299q3 -89 15.5 -141t41.5 -103q43 -75 122 -117t179 -42q65 0 116 18.5t150 77.5l27 -21l-41 -69q-6 -10 -36.5 -28t-69.5 -34q-120 -53 -236 -53t-214.5 45.5t-158.5 126.5q-86 118 -86 318q0 160 55 262 t181 174q130 76 248 76q172 0 276.5 -106.5t104.5 -283.5zM735 547q0 99 -14.5 154.5t-50.5 109.5q-55 82 -158 82q-74 0 -135.5 -39t-93.5 -106q-20 -40 -27.5 -81.5t-7.5 -113.5q133 -12 258 -12z" />
<glyph unicode="f" horiz-adv-x="681" d="M698 1311l-24 -13q-37 32 -68.5 45t-73.5 13q-60 0 -89.5 -25t-41.5 -85.5t-12 -182.5v-174q148 0 268 8l-14 -109h-254v-579q0 -98 12 -121.5t64 -26.5l94 -6v-61q-129 6 -256 6t-256 -6v61l94 6q52 3 64 26.5t12 121.5v579l-141 -8v45l141 64v86q0 196 86 295l119 135 q34 39 83.5 62.5t98.5 23.5q32 0 94 -23v-157z" />
<glyph unicode="g" horiz-adv-x="1138" d="M1114 858l-51 -84h-189q23 -62 23 -110q0 -157 -137 -258q-64 -45 -140 -72t-141 -27q-9 0 -49 4q-12 -12 -24 -22q-40 -34 -55 -54t-15 -40q0 -80 156 -80h327q107 0 174.5 -70t67.5 -180q0 -123 -73.5 -225.5t-200.5 -161t-279 -58.5q-195 0 -318.5 88.5t-123.5 227.5 q0 47 17.5 95t39.5 60l178 97q-74 22 -104.5 48.5t-30.5 69.5q0 41 31 89l161 124q-114 12 -179.5 85.5t-65.5 187.5q0 191 174 291q134 78 278 78q142 0 250 -87l291 9zM725 602q0 130 -64.5 209.5t-168.5 79.5q-98 0 -152.5 -65.5t-54.5 -184.5q0 -118 63 -191t166 -73 q94 0 152.5 62.5t58.5 162.5zM899 -209q0 100 -69 140t-242 40q-185 0 -232 -20q-62 -28 -98.5 -85t-36.5 -126q0 -114 83.5 -185t217.5 -71q161 0 269 87.5t108 219.5z" />
<glyph unicode="h" horiz-adv-x="1191" d="M1171 -6q-85 6 -170 6q-82 0 -161 -6v581q0 118 -62.5 189.5t-165.5 71.5q-94 0 -177 -62t-83 -131v-434q0 -98 12 -121.5t64 -26.5l92 -6v-61q-126 6 -254 6t-254 -6v61l92 6q52 3 64 26.5t12 121.5v1061q0 46 -11.5 65t-39.5 19h-115v57q122 19 187.5 34.5t132.5 41.5 l18 -17v-696l156 135q60 52 162 52q342 0 342 -357v-395q0 -99 11.5 -122t63.5 -26l84 -6v-61z" />
<glyph unicode="i" horiz-adv-x="595" d="M555 -6q-129 6 -256 6t-256 -6v61l94 6q52 3 64 26.5t12 121.5v461q0 72 -6 100.5t-23 38.5t-61 10h-76v58q159 18 320 84l18 -9v-743q0 -98 12 -121.5t64 -26.5l94 -6v-61zM401 1212q0 -46 -28 -74t-74 -28t-74 28t-28 74t28.5 74.5t75.5 28.5q44 0 72 -29t28 -74z" />
<glyph unicode="j" horiz-adv-x="479" d="M326 -39q0 -245 -109 -387q-59 -77 -122 -112.5t-152 -41.5l-25 78q27 -6 62 -6q89 0 131.5 119.5t42.5 374.5v684q0 101 -14.5 125t-76.5 24h-75v58q158 17 319 84l19 -9v-991zM342 1212q0 -46 -28 -74t-74 -28t-74.5 28t-28.5 74t29 74.5t76 28.5q44 0 72 -29t28 -74z " />
<glyph unicode="k" horiz-adv-x="1138" d="M1124 35l-196 -60l-543 517v-283q0 -98 12 -121.5t64 -26.5l90 -6v-61q-126 6 -250 6q-129 0 -258 -6v61l94 6q52 3 64 26.5t12 121.5v1061q0 46 -11.5 65t-39.5 19h-115v57q122 19 187.5 34.5t132.5 41.5l18 -17v-935l150 120q104 82 307 285h205v-61q-53 0 -102 -21 t-120 -76l-264 -207q58 -68 131 -139l258 -256q103 -98 174 -98v-47z" />
<glyph unicode="l" horiz-adv-x="595" d="M555 -6q-129 6 -256 6t-256 -6v61l94 6q52 3 64 26.5t12 121.5v1061q0 46 -11.5 65t-39.5 19h-115v57q122 19 187.5 34.5t132.5 41.5l18 -17v-1261q0 -98 12 -121.5t64 -26.5l94 -6v-61z" />
<glyph unicode="m" horiz-adv-x="1808" d="M1780 -6q-92 6 -183 6q-81 0 -161 -6v581q0 117 -52 189t-135 72q-92 0 -175 -62t-83 -131v-434q0 -98 12 -121.5t64 -26.5l94 -6v-61q-129 6 -256 6t-256 -6v61l94 6q52 3 64 26.5t12 121.5v366q0 117 -51.5 189t-134.5 72q-92 0 -175 -62t-83 -131v-434 q0 -98 12 -121.5t64 -26.5l86 -6v-61q-123 6 -244 6q-131 0 -260 -6v61l94 6q52 3 64 26.5t12 121.5v461q0 72 -6 100.5t-23 38.5t-61 10h-76v58q158 17 319 84l19 -9v-174l141 131q58 52 170 52q105 0 173 -45t118 -146l156 139q58 52 167 52q141 0 224.5 -89t83.5 -241 v-422q0 -98 11.5 -121.5t63.5 -26.5l97 -6v-61z" />
<glyph unicode="n" horiz-adv-x="1191" d="M1171 -6q-85 6 -170 6q-82 0 -161 -6v581q0 118 -62.5 189.5t-165.5 71.5q-94 0 -177 -62t-83 -131v-434q0 -98 12 -121.5t64 -26.5l92 -6v-61q-126 6 -254 6t-254 -6v61l92 6q52 3 64 26.5t12 121.5v461q0 72 -6 100.5t-23 38.5t-61 10h-76v58q159 18 320 84l18 -9v-178 l156 135q60 52 162 52q342 0 342 -357v-395q0 -99 11.5 -122t63.5 -26l84 -6v-61z" />
<glyph unicode="o" horiz-adv-x="1118" d="M1053 485q0 -230 -152.5 -378t-388.5 -148q-198 0 -322 134.5t-124 350.5q0 229 140.5 373t364.5 144q210 0 346 -134.5t136 -341.5zM862 410q0 209 -93 346t-234 137q-135 0 -207 -97.5t-72 -281.5q0 -218 92.5 -352.5t243.5 -134.5q125 0 197.5 103t72.5 280z" />
<glyph unicode="p" horiz-adv-x="1230" d="M1135 555q0 -98 -58.5 -226.5t-120.5 -168.5l-233 -152q-54 -33 -145 -33q-134 0 -220 52v-387q0 -98 12 -121.5t64 -26.5l94 -6v-61q-129 6 -256 6t-256 -6v61l95 6q52 3 63.5 26.5t11.5 121.5v1030q0 72 -6 100.5t-23 38.5t-61 10h-76v58q159 18 320 84l18 -9v-196 l168 153q25 23 75.5 37.5t107.5 14.5q179 0 302.5 -118t123.5 -288zM956 479q0 160 -85 254t-230 94q-157 0 -246 -114q-37 -48 -37 -86v-426q60 -63 126 -92t151 -29q138 0 229.5 113.5t91.5 285.5z" />
<glyph unicode="q" horiz-adv-x="1146" d="M1147 -575q-126 6 -252 6q-144 0 -285 -6v61l119 6q51 3 63.5 27t12.5 121v495l-213 -135q-42 -25 -105 -25q-190 0 -302.5 120.5t-112.5 322.5q0 270 198 397l172 111q24 14 71.5 24.5t90.5 10.5q131 0 281 -68l100 63l39 -22q-47 -105 -47 -283v-1011q0 -98 12 -121.5 t64 -26.5l94 -6v-61zM805 246v534q-103 84 -244 84q-148 0 -229.5 -93.5t-81.5 -262.5q0 -186 85 -301t220 -115q71 0 145 41q42 23 73.5 57t31.5 56z" />
<glyph unicode="r" horiz-adv-x="808" d="M766 938l-18 -246h-43q-47 94 -138 94q-75 0 -128.5 -66.5t-53.5 -158.5v-352q0 -101 13.5 -122.5t82.5 -25.5l107 -6v-61q-147 6 -293 6q-126 0 -252 -6v61l94 6q52 3 64 26.5t12 121.5v461q0 72 -6 100.5t-23 38.5t-61 10h-76v58q159 18 320 84l18 -9v-211l115 136 q32 38 78 61t92 23q58 0 96 -23z" />
<glyph unicode="s" horiz-adv-x="868" d="M801 303q0 -151 -129 -247.5t-330 -96.5q-133 0 -281 49q23 118 23 285h61v-84q0 -76 71.5 -125t184.5 -49q109 0 178.5 52.5t69.5 135.5q0 59 -31 93t-100 49q-215 48 -303 88q-139 64 -139 211q0 138 102.5 217.5t280.5 79.5q113 0 266 -52q-7 -78 -10 -231h-58v47 q0 72 -69 120t-172 48q-94 0 -145.5 -42t-51.5 -118q0 -70 48.5 -106.5t174.5 -61.5q139 -27 200.5 -49t100.5 -61q58 -58 58 -152z" />
<glyph unicode="t" horiz-adv-x="667" d="M653 893l-18 -111h-262v-536q0 -75 26 -108.5t86 -33.5q52 0 121 39l27 -34l-98 -109q-9 -10 -41 -17.5t-68 -7.5q-118 0 -171.5 52t-53.5 166v589l-156 -8v43l160 72v143q0 81 -8 162q102 32 174 78l24 -23q-22 -180 -22 -291v-77z" />
<glyph unicode="u" horiz-adv-x="1234" d="M1190 -6q-86 6 -170 6q-85 0 -170 -6q8 128 8 188l-137 -127q-86 -80 -229 -80q-171 0 -240 93q-28 38 -38.5 94.5t-10.5 163.5v344q0 72 -6 100.5t-23 38.5t-61 10h-76v58q158 17 319 84l19 -9v-604q0 -137 43 -186q52 -62 162 -62q116 0 202 86q35 35 55.5 75.5 t20.5 74.5v334q0 72 -6 100.5t-23 38.5t-61 10h-76v58q159 18 320 84l18 -9v-743q0 -99 12 -122t64 -26l84 -6v-61z" />
<glyph unicode="v" horiz-adv-x="1157" d="M1104 883l-64 -4q-31 -1 -55 -30.5t-59 -107.5l-242 -532q-3 -8 -19 -42.5t-19.5 -42.5t-14 -34t-14 -38t-9 -30.5t-8.5 -35.5h-102l-353 825q-21 48 -32 57.5t-31 10.5l-70 4v57q120 -6 238 -6q119 0 239 6v-57l-100 -4q-79 -2 -33 -117l244 -590l127 287l86 217 q42 104 40.5 152t-50.5 51l-84 4v57q94 -6 192 -6t193 6v-57z" />
<glyph unicode="w" horiz-adv-x="1708" d="M1655 883l-53 -4q-36 -3 -63.5 -39t-68.5 -140l-280 -714h-94l-279 700q-69 -143 -106 -229l-201 -471h-96l-209 688q-38 122 -64.5 162t-70.5 43l-58 4v57q123 -6 244 -6t244 6v-57l-82 -4q-56 -3 -71 -29t1 -72l172 -565l326 748h47q23 -79 59 -166l236 -594l98 254 l103 286q47 132 -66 138l-70 4v57q102 -6 201 -6t201 6v-57z" />
<glyph unicode="x" horiz-adv-x="1056" d="M1016 -6q-64 6 -127 6t-125 -6l-272 399l-152 -200q-48 -64 -79 -112.5t-37 -64.5l-7 -16h-176v55h35q15 0 33 9t28 22l305 360l-245 357q-15 22 -45 39t-58 20l-43 4l-10 54l238 41q78 -78 122 -142l156 -237l254 358h168v-57h-29q-49 0 -69 -23l-291 -340l303 -409 q35 -47 72 -50l51 -6v-61z" />
<glyph unicode="y" horiz-adv-x="1138" d="M1114 883l-57 -4q-38 -3 -74 -55.5t-98 -192.5l-416 -959q-59 -134 -129.5 -193t-173.5 -59q-51 0 -111 31l49 154h27q53 -47 105 -47q58 0 115.5 69.5t107.5 198.5l47 125l-338 827q-21 53 -44.5 74.5t-62.5 26.5l-36 4v57q120 -6 237 -6q118 0 238 6v-57l-78 -4 q-58 -3 -67.5 -35t18.5 -99l131 -344q54 -138 104 -225l244 598q23 56 7 78t-81 27l-53 4v57q99 -6 195 -6q95 0 194 6v-57z" />
<glyph unicode="z" d="M954 285l-12 -97q-18 -147 -18 -194q-282 6 -566 6q-157 0 -313 -6l-12 41l532 649q75 92 133 184h-292q-114 0 -152.5 -10.5t-44.5 -42.5l-25 -139h-61q14 163 18 270q255 -6 508 -6q142 0 283 6v-61l-643 -813h276q149 0 217 11.5t74 39.5l37 162h61z" />
<glyph unicode="{" horiz-adv-x="681" d="M592 -358q-100 2 -153 14t-87 41q-78 69 -78 268v344q0 123 -30 171t-125 79q90 31 122.5 82t32.5 162v381q0 181 84 250q35 28 87.5 39.5t146.5 13.5q-97 -32 -133.5 -89.5t-36.5 -178.5v-381q0 -135 -35 -191.5t-137 -87.5q105 -32 138.5 -90t33.5 -207v-354 q0 -121 38 -180.5t132 -85.5z" />
<glyph unicode="|" horiz-adv-x="1241" d="M678 -377h-115v1864h115v-1864z" />
<glyph unicode="}" horiz-adv-x="681" d="M563 559q-95 -31 -125 -79t-30 -171v-344q0 -203 -84 -272q-34 -27 -86 -38.5t-148 -12.5q94 26 132 85.5t38 180.5v354q0 149 33.5 207t138.5 90q-102 31 -137 87.5t-35 191.5v381q0 120 -36.5 178t-133.5 90q98 -2 151.5 -14.5t88.5 -42.5q78 -64 78 -246v-381 q0 -111 32.5 -162t122.5 -82z" />
<glyph unicode="~" horiz-adv-x="1241" d="M1137 643q-127 -231 -283 -231q-40 0 -94.5 17t-171.5 67q-97 41 -128.5 51t-68.5 10q-61 0 -108 -40t-109 -144l-70 55q75 133 141 189.5t144 56.5q46 0 99.5 -16.5t162.5 -63.5q95 -42 133.5 -55t67.5 -13q119 0 215 172z" />
<glyph unicode="&#xa1;" horiz-adv-x="569" d="M403 811q0 -46 -35.5 -82.5t-80.5 -36.5q-47 0 -84 36.5t-37 82.5q0 47 37 83t86 36q44 0 79 -36.5t35 -82.5zM395 -424l-153 -78h-70v51q0 77 14 195l60 668v51l57 47l21 -10l4 -82z" />
<glyph unicode="&#xa2;" d="M918 109l-41 -68q-149 -70 -297 -70q-57 0 -127 11l-58 -189h-84l66 213q-64 34 -101 65t-71 81q-80 119 -80 303q0 292 209 397l164 82q60 29 168 29l55 188h82l-55 -188q78 -3 163 -54q-22 -137 -22 -266h-58l-18 135q-35 38 -102 64l-217 -723q83 -45 174 -45 q92 0 231 57zM633 858q-64 10 -80 10q-117 0 -181.5 -93t-64.5 -261q0 -100 29 -195q15 -48 33 -77t57 -70z" />
<glyph unicode="&#xa3;" d="M979 1368q-21 -108 -21 -209q0 -23 3 -69h-68q-1 89 -12.5 129t-42.5 65q-53 41 -146 41q-92 0 -152 -36.5t-98 -114.5q-49 -104 -49 -267v-182l373 12l-8 -98l-371 10q-8 -134 -52.5 -253t-139.5 -255q147 19 272 15l321 -13q11 0 27 -1t21 -1q29 0 41 15.5t18 60.5 l14 107h54v-304q-31 -26 -50.5 -33t-52.5 -7q-191 0 -366 38q-161 38 -332 48l-92 -93h-45v101q32 32 77 55q24 11 32 18.5t18 28.5q31 62 50 175.5t19 234.5v61l-196 -6l16 92l180 -6v217q0 197 203 344q186 133 354 133q63 0 106 -11t95 -42z" />
<glyph unicode="&#xa4;" d="M963 289l-93 -92l-98 98q-59 -46 -119 -66t-141 -20q-83 0 -143 20t-117 66l-98 -98l-93 92l101 100q-46 59 -66 117t-20 135q0 80 20 139t66 111l-101 100l97 96l98 -98q112 84 256 84q141 0 256 -84l98 98l97 -96l-101 -100q46 -52 66 -111t20 -139q0 -76 -20 -134.5 t-66 -117.5zM827 643q0 128 -93.5 218.5t-225.5 90.5q-127 0 -219 -92.5t-92 -218.5q0 -129 92 -220t223 -91t223 91.5t92 221.5z" />
<glyph unicode="&#xa5;" d="M1016 1391q-130 -181 -266 -469l-66 -140h250v-80h-285q-35 -76 -35 -133v-65h320v-80h-320v-178q0 -120 15 -150.5t76 -34.5l83 -6v-61q-132 6 -266 6q-114 0 -231 -6v61l84 6q61 4 75.5 34t14.5 151v178h-320v80h320v33q0 33 -12 63l-43 102h-265v80h228l-154 328 q-66 140 -105.5 182t-103.5 39v60l189 43q6 2 20 2q40 0 65.5 -32.5t57.5 -123.5q4 -15 7.5 -25t6 -15.5t2.5 -6.5l213 -535l144 334l157 389h144v-30z" />
<glyph unicode="&#xa6;" horiz-adv-x="1241" d="M678 741h-115v746h115v-746zM678 -377h-115v746h115v-746z" />
<glyph unicode="&#xa7;" d="M952 518q0 -82 -37.5 -150.5t-121.5 -140.5q64 -35 93 -85.5t29 -127.5q0 -85 -43 -170t-112 -149t-161.5 -104t-186.5 -40q-159 0 -322 91q21 192 25 321h65l10 -184q63 -68 125.5 -94.5t157.5 -26.5q143 0 228 67t85 179q0 103 -94 170q-36 26 -88.5 46.5t-183.5 63.5 q-122 39 -182 68.5t-111 73.5q-34 30 -54 75.5t-20 96.5q0 160 170 284q-119 88 -119 211q0 122 65 228t175 168.5t236 62.5q139 0 272 -74q-22 -160 -27 -311h-63l-10 178q-65 56 -120.5 78.5t-127.5 22.5q-123 0 -202 -69.5t-79 -176.5q0 -90 84 -148q38 -26 92 -47.5 t189 -64.5q204 -66 284 -137t80 -185zM817 436q0 98 -94 158q-43 27 -97.5 47.5t-164.5 52.5q-114 33 -185 62q-47 -43 -67.5 -84t-20.5 -94q0 -82 86.5 -141.5t300.5 -123.5q126 -40 173 -61q69 108 69 184z" />
<glyph unicode="&#xa8;" horiz-adv-x="681" d="M240 1212q0 -46 -28.5 -74t-74.5 -28t-74 28t-28 74t28.5 74.5t75.5 28.5q44 0 72.5 -29.5t28.5 -73.5zM647 1212q0 -46 -28 -74t-74 -28t-74.5 28t-28.5 74t29 74.5t76 28.5q44 0 72 -29t28 -74z" />
<glyph unicode="&#xa9;" horiz-adv-x="1529" d="M1470 664q0 -143 -55.5 -273.5t-150 -224.5t-225 -149.5t-273.5 -55.5q-191 0 -353 94t-256 256t-94 353q0 143 55.5 273.5t149.5 225t224.5 150t273.5 55.5t273.5 -55.5t225 -150t150 -225t55.5 -273.5zM1389 664q0 169 -83.5 312.5t-227 226.5t-312.5 83t-312 -83 t-226 -226.5t-83 -312.5t83 -312t226 -226t312 -83t312.5 83t227 226t83.5 312zM1169 379l-39 -64q-125 -61 -278 -61q-219 0 -354.5 112t-135.5 293q0 227 216 345q125 67 294 67q138 0 289 -47q-21 -94 -24 -182h-54v88q0 30 -72.5 54t-158.5 24q-150 0 -241 -89.5 t-91 -236.5q0 -158 103.5 -254t275.5 -96q140 0 250 67z" />
<glyph unicode="&#xaa;" horiz-adv-x="681" d="M635 872q-49 4 -51 5q-25 2 -49 2l-56 -2l-35 -3l-12 -2l6 105l-166 -107q-43 -6 -65 -6q-72 0 -115 39.5t-43 106.5q0 81 62 128.5t196 69.5l131 21q-1 83 -43.5 120t-136.5 37q-42 0 -57.5 -7.5t-32.5 -35.5l-6 -10l-6 -12l-19 -39l-35 8v80l72 41q71 41 156 41 q132 0 188 -80q16 -24 21.5 -56t5.5 -108v-209q0 -59 8.5 -74.5t40.5 -15.5h41v-37zM438 1028v162q-152 -19 -213 -55t-61 -105q0 -41 29.5 -68.5t72.5 -27.5q28 0 68.5 16.5t60.5 36.5zM635 739h-586v70h586v-70z" />
<glyph unicode="&#xab;" d="M510 176l-47 -31l-361 351v24l361 357l47 -27l-244 -342zM922 176l-48 -31l-360 351v24l360 357l48 -27l-244 -342z" />
<glyph unicode="&#xac;" horiz-adv-x="1241" d="M1159 336h-115v295l-962 2v115h1077v-412z" />
<glyph unicode="&#xad;" horiz-adv-x="681" d="M639 578l-61 -138h-533l-10 11l55 137h539z" />
<glyph unicode="&#xae;" horiz-adv-x="1529" d="M1470 664q0 -143 -55.5 -273.5t-150 -224.5t-225 -149.5t-273.5 -55.5q-191 0 -353 94t-256 256t-94 353q0 143 55.5 273.5t149.5 225t224.5 150t273.5 55.5t273.5 -55.5t225 -150t150 -225t55.5 -273.5zM1389 664q0 169 -83.5 312.5t-227 226.5t-312.5 83t-312 -83 t-226 -226.5t-83 -312.5t83 -312t226 -226t312 -83t312.5 83t227 226t83.5 312zM1161 324v-54q-47 6 -92 6t-88 -6l-328 400v30h43q86 0 149.5 43t63.5 113q0 62 -53.5 99.5t-126.5 37.5q-49 0 -104 -10v-567q0 -85 47 -90l61 -2v-54q-89 6 -180 6t-182 -6v54l63 2 q47 5 47 90v493q0 87 -47 90l-53 5v51q70 -4 213 -4q36 0 107.5 2t107.5 2q102 0 176 -46.5t74 -127.5q0 -97 -107 -168q-52 -33 -123 -49l267 -316q16 -20 65 -24z" />
<glyph unicode="&#xaf;" horiz-adv-x="681" d="M662 1159h-639v109h639v-109z" />
<glyph unicode="&#xb0;" horiz-adv-x="819" d="M717 1100q0 -123 -91 -213t-216 -90q-128 0 -218 90t-90 217t90 217t216 90q129 0 219 -91t90 -220zM635 1100q0 95 -66.5 162t-160.5 67q-92 0 -158 -65.5t-66 -159.5t66 -159.5t160 -65.5q92 0 158.5 65.5t66.5 155.5z" />
<glyph unicode="&#xb1;" horiz-adv-x="1241" d="M1159 569h-481v-352h-115v352h-481v115h481v481h115v-481h481v-115zM1159 0h-1077v115h1077v-115z" />
<glyph unicode="&#xb2;" horiz-adv-x="614" d="M582 555l-289 4l-281 -4v41l211 221q103 107 146 180.5t43 141.5q0 73 -44.5 116t-121.5 43q-60 0 -92.5 -22t-47.5 -72l-18 -61h-49l22 174q47 47 98 67.5t120 20.5q120 0 189 -62.5t69 -168.5q0 -69 -33.5 -130.5t-124.5 -156.5l-213 -221l416 12l-2 -14q-2 -11 -2 -48 q0 -36 2 -47z" />
<glyph unicode="&#xb3;" horiz-adv-x="614" d="M575 836q0 -114 -108 -207.5t-240 -93.5q-59 0 -157 28l-15 4q-7 78 -45 189l45 16q26 -70 51 -104q58 -70 160 -70q83 0 133 54t50 143q0 79 -41 123.5t-115 44.5q-44 0 -105 -27l-14 12l16 74q13 -1 27.5 -2t23 -1.5t13.5 -0.5q61 0 106.5 47.5t45.5 112.5 q0 54 -40.5 93.5t-97.5 39.5q-46 0 -92 -24.5t-55 -53.5l-25 -72h-51l37 160q50 46 95.5 65t109.5 19q104 0 168.5 -51t64.5 -133q0 -54 -29.5 -100t-95.5 -99q92 -19 136 -64t44 -122z" />
<glyph unicode="&#xb4;" horiz-adv-x="681" d="M618 1317q0 -28 -15 -46t-66 -50l-295 -185h-82l282 283q67 67 113 67q26 0 44.5 -20t18.5 -49z" />
<glyph unicode="&#xb5;" horiz-adv-x="1234" d="M1190 -6q-86 6 -172 6t-168 -6q8 128 8 188l-137 -127q-89 -80 -232 -80q-95 0 -182 41l41 -403v-6q0 -21 -51 -52.5t-94 -37.5v1153q0 72 -6 100.5t-23 38.5t-61 10h-76v58q158 17 319 84l19 -9v-604q0 -137 43 -186q52 -62 162 -62q116 0 202 86q35 35 55.5 75.5 t20.5 74.5v334q0 72 -6 100.5t-23 38.5t-61 10h-76v58q159 18 320 84l18 -9v-743q0 -99 12 -122t64 -26l84 -6v-61z" />
<glyph unicode="&#xb6;" horiz-adv-x="1286" d="M1206 -307l-413 6l-414 -6v61l86 6q48 3 69.5 18t30 51.5t8.5 115.5v762q-113 8 -189 33.5t-151 82.5q-153 116 -153 287q0 140 102 229.5t262 83.5l121 -4l297 -8q163 0 344 10v-61l-65 -6q-80 -8 -104.5 -41.5t-24.5 -136.5v-1231q0 -79 8.5 -115.5t30 -51.5t69.5 -18 l86 -6v-61zM573 782v559q-12 2 -30 2q-102 0 -169 -75.5t-67 -190.5q0 -114 68.5 -190t197.5 -105zM862 -246v1587h-139v-1587h139z" />
<glyph unicode="&#xb7;" horiz-adv-x="512" d="M375 512q0 -50 -34.5 -84.5t-84.5 -34.5t-84.5 34.5t-34.5 84.5t34.5 84.5t84.5 34.5t84.5 -34.5t34.5 -84.5z" />
<glyph unicode="&#xb8;" horiz-adv-x="681" d="M623 -289q0 -79 -68.5 -125.5t-185.5 -46.5q-41 0 -73 6t-99 27l28 63q83 -22 133 -22q111 0 111 88q0 35 -22.5 57.5t-59.5 22.5q-29 0 -84 -14l-14 12l86 241h69l-51 -174q30 9 56 9q80 0 127 -39t47 -105z" />
<glyph unicode="&#xb9;" horiz-adv-x="614" d="M520 555q-132 4 -201 4l-208 -4v49l75 4q47 3 60.5 16.5t13.5 57.5v586q0 24 -4 32l-160 -71h-20l-10 63q160 56 286 119l25 -8v-721q0 -44 13.5 -57.5t60.5 -16.5l69 -4v-49z" />
<glyph unicode="&#xba;" horiz-adv-x="681" d="M662 1161q0 -129 -99 -219t-241 -90q-135 0 -218.5 80.5t-83.5 210.5q0 137 92.5 223t241.5 86q135 0 221.5 -81.5t86.5 -209.5zM539 1128q0 120 -61 201.5t-152 81.5q-88 0 -135.5 -58t-47.5 -167q0 -129 58.5 -211t152.5 -82q83 0 134 64.5t51 170.5zM662 727h-642v70 h642v-70z" />
<glyph unicode="&#xbb;" d="M922 496l-361 -351l-47 31l244 332l-244 342l47 27l361 -357v-24zM510 496l-360 -351l-48 31l244 332l-244 342l48 27l360 -357v-24z" />
<glyph unicode="&#xbc;" horiz-adv-x="1536" d="M1489 213q-56 6 -143 6v-74q0 -100 90 -100h43v-51q-125 6 -205 6l-219 -6v51h43q68 0 94.5 21.5t26.5 78.5v74h-355l-10 31q5 10 11 24t10 22t13 23t21 33l324 467l100 33l19 -6q-11 -202 -11 -375v-158h35h4q31 -3 109 4v-104zM1350 1411l-924 -1411h-107l924 1411h107 zM549 559q-228 6 -230 6q-1 0 -217 -6v53h74q55 0 71.5 30.5t16.5 133.5v488q0 36 -10 39h-6l-164 -70h-14l-9 65l330 119l21 -6q-17 -261 -17 -418v-217q0 -105 15.5 -134.5t70.5 -29.5h68v-53zM1219 313v394l-265 -394h265z" />
<glyph unicode="&#xbd;" horiz-adv-x="1536" d="M1280 1411l-924 -1411h-106l924 1411h106zM518 559q-228 6 -229 6t-217 -6v53h73q55 0 71.5 30.5t16.5 133.5v488q0 36 -10 39h-6l-164 -70h-14l-8 65l329 119l21 -6q-16 -245 -16 -418v-217q0 -105 15.5 -134.5t70.5 -29.5h67v-53zM1505 -6q-196 6 -321 6l-295 -6v41 l221 213q114 108 159.5 181.5t45.5 145.5q0 82 -45.5 126t-128.5 44q-110 0 -146 -96l-26 -71h-49l24 182q50 46 102 66t125 20q127 0 205 -63.5t78 -166.5q0 -134 -156 -284l-235 -223h250q105 0 192 10q-4 -33 -4 -68q0 -32 4 -57z" />
<glyph unicode="&#xbe;" horiz-adv-x="1536" d="M641 840q0 -120 -107 -207.5t-253 -87.5q-81 0 -197 33q-4 40 -35 133l-18 59l63 16q32 -95 82 -135.5t135 -40.5q88 0 141.5 52.5t53.5 138.5q0 80 -44.5 122t-129.5 42q-54 0 -101 -27l-20 8l20 88q33 0 37 -2h29q66 0 115 47t49 109q0 54 -44.5 91.5t-107.5 37.5 q-66 0 -112.5 -35.5t-61.5 -97.5h-51l39 145q47 44 96 63t117 19q113 0 180.5 -49.5t67.5 -132.5q0 -53 -34 -99t-114 -104q108 -17 156.5 -61t48.5 -125zM1368 1411l-924 -1411h-106l924 1411h106zM1505 213q-55 6 -143 6v-74q0 -100 90 -100h43v-51q-125 6 -205 6l-219 -6 v51h43q68 0 94.5 21.5t26.5 78.5v74h-354l-11 31q4 8 11 23.5t11 23t13 22.5t21 33l323 467l101 33l18 -6q-10 -184 -10 -375v-158h35h4q30 -3 108 4v-104zM1235 313v394l-264 -394h264z" />
<glyph unicode="&#xbf;" horiz-adv-x="909" d="M821 -199l-78 -231q-82 -40 -142.5 -56t-127.5 -16q-158 0 -265.5 91t-107.5 225q0 87 47.5 161t178.5 195q125 113 158.5 157t33.5 95q0 45 -45 98l43 29q90 -58 90 -150q0 -53 -32 -106.5t-125 -155.5q-91 -100 -124.5 -159.5t-33.5 -120.5q0 -98 71 -161t181 -63 q142 0 178 86l41 99zM621 811q0 -46 -35.5 -82.5t-81.5 -36.5q-47 0 -84 36.5t-37 82.5q0 47 37 83t86 36q44 0 79.5 -36.5t35.5 -82.5z" />
<glyph unicode="&#xc0;" horiz-adv-x="1593" d="M1548 -6q-129 6 -260 6q-143 0 -284 -6v61l96 6q84 7 84 41q0 25 -43 131l-94 236h-590l-58 -137q-71 -168 -71 -217q0 -25 22 -37.5t76 -16.5l76 -6v-61q-123 6 -248 6q-112 0 -223 -6v61l75 6q68 6 111 101l453 1028q35 77 60 138t32 84l8 22h66l495 -1164 q56 -128 82.5 -167t65.5 -42l69 -6v-61zM1010 551l-258 610l-260 -610h518zM1018 1534h-88l-320 149q-54 26 -71 41.5t-17 38.5t20 39.5t48 16.5q55 -3 123 -54z" />
<glyph unicode="&#xc1;" horiz-adv-x="1593" d="M1548 -6q-129 6 -260 6q-143 0 -284 -6v61l96 6q84 7 84 41q0 25 -43 131l-94 236h-590l-58 -137q-71 -168 -71 -217q0 -25 22 -37.5t76 -16.5l76 -6v-61q-123 6 -248 6q-112 0 -223 -6v61l75 6q68 6 111 101l453 1028q35 77 60 138t32 84l8 22h66l495 -1164 q56 -128 82.5 -167t65.5 -42l69 -6v-61zM1010 551l-258 610l-260 -610h518zM1083 1763q0 -23 -17 -38.5t-71 -41.5l-319 -149h-88l305 231q68 51 123 54q28 0 47.5 -16.5t19.5 -39.5z" />
<glyph unicode="&#xc2;" horiz-adv-x="1593" d="M1548 -6q-129 6 -260 6q-143 0 -284 -6v61l96 6q84 7 84 41q0 25 -43 131l-94 236h-590l-58 -137q-71 -168 -71 -217q0 -25 22 -37.5t76 -16.5l76 -6v-61q-123 6 -248 6q-112 0 -223 -6v61l75 6q68 6 111 101l453 1028q35 77 60 138t32 84l8 22h66l495 -1164 q56 -128 82.5 -167t65.5 -42l69 -6v-61zM1010 551l-258 610l-260 -610h518zM1147 1540h-78l-268 172l-269 -172h-75l274 277h139z" />
<glyph unicode="&#xc3;" horiz-adv-x="1593" d="M1548 -6q-129 6 -260 6q-143 0 -284 -6v61l96 6q84 7 84 41q0 25 -43 131l-94 236h-590l-58 -137q-71 -168 -71 -217q0 -25 22 -37.5t76 -16.5l76 -6v-61q-123 6 -248 6q-112 0 -223 -6v61l75 6q68 6 111 101l453 1028q35 77 60 138t32 84l8 22h66l495 -1164 q56 -128 82.5 -167t65.5 -42l69 -6v-61zM1010 551l-258 610l-260 -610h518zM1143 1786q-6 -90 -71 -152.5t-152 -62.5q-63 0 -140 39q-109 53 -145 53q-70 0 -109 -92h-59q22 100 77 152.5t140 52.5q36 0 67.5 -11t114.5 -51q66 -31 97 -31q43 0 70 23t50 80h60z" />
<glyph unicode="&#xc4;" horiz-adv-x="1593" d="M1548 -6q-129 6 -260 6q-143 0 -284 -6v61l96 6q84 7 84 41q0 25 -43 131l-94 236h-590l-58 -137q-71 -168 -71 -217q0 -25 22 -37.5t76 -16.5l76 -6v-61q-123 6 -248 6q-112 0 -223 -6v61l75 6q68 6 111 101l453 1028q35 77 60 138t32 84l8 22h66l495 -1164 q56 -128 82.5 -167t65.5 -42l69 -6v-61zM1010 551l-258 610l-260 -610h518zM702 1677q0 -46 -28 -74t-74 -28t-74 28t-28 74t28.5 74.5t75.5 28.5q44 0 72 -29t28 -74zM1110 1677q0 -46 -28 -74t-74 -28t-74.5 28t-28.5 74t29 74.5t76 28.5q44 0 72 -29t28 -74z" />
<glyph unicode="&#xc5;" horiz-adv-x="1593" d="M1548 -6q-129 6 -260 6q-143 0 -284 -6v61l96 6q84 7 84 41q0 25 -43 131l-94 236h-590l-58 -137q-71 -168 -71 -217q0 -25 22 -37.5t76 -16.5l76 -6v-61q-123 6 -248 6q-112 0 -223 -6v61l75 6q68 6 111 101l453 1028q35 77 60 138t32 84l8 22h66l495 -1164 q56 -128 82.5 -167t65.5 -42l69 -6v-61zM1010 551l-258 610l-260 -610h518zM1010 1718q0 -86 -60 -145.5t-145 -59.5q-86 0 -145.5 59.5t-59.5 147.5q0 85 60.5 144t148.5 59q82 0 141.5 -60.5t59.5 -144.5zM932 1718q0 58 -34.5 94.5t-90.5 36.5q-59 0 -94 -35.5t-35 -93.5 q0 -61 34 -97t93 -36q57 0 92 36t35 95z" />
<glyph unicode="&#xc6;" horiz-adv-x="1933" d="M1860 336q-33 -175 -33 -336l-344 -6q-252 6 -506 6q-71 0 -141 -6v47l57 33q29 17 41 55t12 117v250q-126 6 -252 6q-125 0 -248 -6l-131 -234q-36 -65 -46.5 -91t-10.5 -50q0 -51 109 -60l73 -6v-61q-102 6 -200 6q-131 0 -260 -6v61l69 11q48 7 107 112l592 1049 q38 65 38 96q0 11 -24 17t-86 10l-90 6v61q264 -6 526 -6q232 0 463 6l252 -6q-33 -129 -33 -311h-72v133q0 35 -9.5 47.5t-45.5 22.5q-116 28 -297 28q-107 0 -150 -3t-90 -13v-547q120 -8 324 -8q76 0 110 14.5t38 63.5l10 106h61q-6 -120 -6 -237q0 -114 6 -228h-61 l-10 121q-4 47 -38.5 61.5t-111.5 14.5l-322 -6v-574q79 -16 203 -16q303 0 377 24q51 16 78 232h72zM946 580v761h-24l-426 -761h450z" />
<glyph unicode="&#xc7;" horiz-adv-x="1452" d="M1372 172l-57 -102q-211 -111 -465 -111h-29l-43 -113q30 9 53 9q82 0 129.5 -39t47.5 -105q0 -80 -68 -126t-186 -46q-44 0 -75 6t-97 27l28 63q81 -22 135 -22q53 0 81 22.5t28 65.5q0 35 -22.5 57.5t-59.5 22.5q-29 0 -84 -14l-14 12l80 184q-334 37 -521.5 231.5 t-187.5 505.5q0 207 90.5 367.5t265.5 261.5q214 123 486 123q214 0 473 -84q-36 -169 -39 -311h-64v147q0 39 -59.5 77t-154.5 61.5t-193 23.5q-266 0 -426 -171.5t-160 -455.5q0 -302 182.5 -485.5t483.5 -183.5q234 0 424 123z" />
<glyph unicode="&#xc8;" horiz-adv-x="1251" d="M1171 336q-32 -170 -32 -336l-342 -6q-237 6 -475 6q-126 0 -252 -6v61l73 6q32 3 48.5 7.5t29.5 13.5t18 31.5t7 51t2 81.5v919q0 65 -2.5 97t-15 53.5t-31 27t-56.5 7.5l-98 6v61q181 -6 365 -6q238 0 475 6l254 -6q-33 -129 -33 -311h-72v133q0 36 -9.5 48t-45.5 22 q-103 28 -297 28q-107 0 -150 -3t-90 -13v-547q120 -8 328 -8q72 0 102 14t41 64q4 17 7 43.5t4 44.5v18h61q-6 -120 -6 -237q0 -114 6 -228h-61q-3 76 -11 121q-10 48 -40 62t-103 14l-328 -6v-574q79 -16 203 -16q303 0 377 24q22 8 40.5 52t27.5 110l10 70h71zM840 1534 h-88l-320 149q-54 26 -71 41.5t-17 38.5t20 39.5t48 16.5q55 -3 123 -54z" />
<glyph unicode="&#xc9;" horiz-adv-x="1251" d="M1171 336q-32 -170 -32 -336l-342 -6q-237 6 -475 6q-126 0 -252 -6v61l73 6q32 3 48.5 7.5t29.5 13.5t18 31.5t7 51t2 81.5v919q0 65 -2.5 97t-15 53.5t-31 27t-56.5 7.5l-98 6v61q181 -6 365 -6q238 0 475 6l254 -6q-33 -129 -33 -311h-72v133q0 36 -9.5 48t-45.5 22 q-103 28 -297 28q-107 0 -150 -3t-90 -13v-547q120 -8 328 -8q72 0 102 14t41 64q4 17 7 43.5t4 44.5v18h61q-6 -120 -6 -237q0 -114 6 -228h-61q-3 76 -11 121q-10 48 -40 62t-103 14l-328 -6v-574q79 -16 203 -16q303 0 377 24q22 8 40.5 52t27.5 110l10 70h71zM907 1763 q0 -23 -17 -38.5t-71 -41.5l-319 -149h-88l305 231q68 51 123 54q28 0 47.5 -16.5t19.5 -39.5z" />
<glyph unicode="&#xca;" horiz-adv-x="1251" d="M1171 336q-32 -170 -32 -336l-342 -6q-237 6 -475 6q-126 0 -252 -6v61l73 6q32 3 48.5 7.5t29.5 13.5t18 31.5t7 51t2 81.5v919q0 65 -2.5 97t-15 53.5t-31 27t-56.5 7.5l-98 6v61q181 -6 365 -6q238 0 475 6l254 -6q-33 -129 -33 -311h-72v133q0 36 -9.5 48t-45.5 22 q-103 28 -297 28q-107 0 -150 -3t-90 -13v-547q120 -8 328 -8q72 0 102 14t41 64q4 17 7 43.5t4 44.5v18h61q-6 -120 -6 -237q0 -114 6 -228h-61q-3 76 -11 121q-10 48 -40 62t-103 14l-328 -6v-574q79 -16 203 -16q303 0 377 24q22 8 40.5 52t27.5 110l10 70h71zM971 1540 h-78l-268 172l-269 -172h-75l274 277h139z" />
<glyph unicode="&#xcb;" horiz-adv-x="1251" d="M1171 336q-32 -170 -32 -336l-342 -6q-237 6 -475 6q-126 0 -252 -6v61l73 6q32 3 48.5 7.5t29.5 13.5t18 31.5t7 51t2 81.5v919q0 65 -2.5 97t-15 53.5t-31 27t-56.5 7.5l-98 6v61q181 -6 365 -6q238 0 475 6l254 -6q-33 -129 -33 -311h-72v133q0 36 -9.5 48t-45.5 22 q-103 28 -297 28q-107 0 -150 -3t-90 -13v-547q120 -8 328 -8q72 0 102 14t41 64q4 17 7 43.5t4 44.5v18h61q-6 -120 -6 -237q0 -114 6 -228h-61q-3 76 -11 121q-10 48 -40 62t-103 14l-328 -6v-574q79 -16 203 -16q303 0 377 24q22 8 40.5 52t27.5 110l10 70h71zM524 1677 q0 -46 -28 -74t-74 -28t-74.5 28t-28.5 74t29 74.5t76 28.5q44 0 72 -29t28 -74zM932 1677q0 -46 -28.5 -74t-74.5 -28t-74 28t-28 74t28.5 74.5t75.5 28.5q44 0 72.5 -29.5t28.5 -73.5z" />
<glyph unicode="&#xcc;" horiz-adv-x="690" d="M645 -6q-150 6 -301 6q-149 0 -299 -6v61l98 6q38 2 56.5 7.5t31 27t15 53.5t2.5 97v919q0 65 -2.5 97t-15 53.5t-31 27t-56.5 7.5l-98 6v61q150 -6 299 -6q151 0 301 6v-61l-98 -6q-38 -2 -56.5 -7.5t-31 -27t-15 -53.5t-2.5 -97v-919q0 -65 2.5 -97t15 -53.5t31 -27 t56.5 -7.5l98 -6v-61zM561 1534h-88l-319 149q-54 26 -71 41.5t-17 38.5t19.5 39.5t47.5 16.5q55 -3 123 -54z" />
<glyph unicode="&#xcd;" horiz-adv-x="690" d="M645 -6q-150 6 -301 6q-149 0 -299 -6v61l98 6q38 2 56.5 7.5t31 27t15 53.5t2.5 97v919q0 65 -2.5 97t-15 53.5t-31 27t-56.5 7.5l-98 6v61q150 -6 299 -6q151 0 301 6v-61l-98 -6q-38 -2 -56.5 -7.5t-31 -27t-15 -53.5t-2.5 -97v-919q0 -65 2.5 -97t15 -53.5t31 -27 t56.5 -7.5l98 -6v-61zM627 1763q0 -23 -17 -38.5t-71 -41.5l-320 -149h-88l305 231q68 51 123 54q28 0 48 -16.5t20 -39.5z" />
<glyph unicode="&#xce;" horiz-adv-x="690" d="M645 -6q-150 6 -301 6q-149 0 -299 -6v61l98 6q38 2 56.5 7.5t31 27t15 53.5t2.5 97v919q0 65 -2.5 97t-15 53.5t-31 27t-56.5 7.5l-98 6v61q150 -6 299 -6q151 0 301 6v-61l-98 -6q-38 -2 -56.5 -7.5t-31 -27t-15 -53.5t-2.5 -97v-919q0 -65 2.5 -97t15 -53.5t31 -27 t56.5 -7.5l98 -6v-61zM690 1540h-78l-268 172l-268 -172h-76l274 277h140z" />
<glyph unicode="&#xcf;" horiz-adv-x="690" d="M645 -6q-150 6 -301 6q-149 0 -299 -6v61l98 6q38 2 56.5 7.5t31 27t15 53.5t2.5 97v919q0 65 -2.5 97t-15 53.5t-31 27t-56.5 7.5l-98 6v61q150 -6 299 -6q151 0 301 6v-61l-98 -6q-38 -2 -56.5 -7.5t-31 -27t-15 -53.5t-2.5 -97v-919q0 -65 2.5 -97t15 -53.5t31 -27 t56.5 -7.5l98 -6v-61zM246 1677q0 -46 -28.5 -74t-74.5 -28t-74 28t-28 74t28.5 74.5t75.5 28.5q44 0 72.5 -29.5t28.5 -73.5zM653 1677q0 -46 -28 -74t-74 -28t-74 28t-28 74t28.5 74.5t75.5 28.5q44 0 72 -29t28 -74z" />
<glyph unicode="&#xd0;" horiz-adv-x="1585" d="M1538 788q0 -164 -63.5 -320t-174.5 -265q-212 -209 -602 -209q-49 0 -148.5 3t-148.5 3q-143 0 -284 -6v47l63 33q51 25 51 121v514h-202v73h202v383q0 120 -17 150.5t-87 34.5l-82 6v61q212 -6 422 -6q59 0 177.5 3t178.5 3q324 0 519.5 -171.5t195.5 -457.5zM1319 735 q0 306 -145 451q-149 149 -521 149q-142 0 -227 -16v-537h377v-73h-377v-609q71 -16 211 -16q173 0 279 30t198 105q205 169 205 516z" />
<glyph unicode="&#xd1;" horiz-adv-x="1701" d="M1665 1356l-90 -6q-38 -2 -56.5 -8t-31 -27.5t-15 -53.5t-2.5 -96v-1130q0 -10 3.5 -38t3.5 -38l-185 33l-968 1202v-948q0 -120 17 -150.5t87 -34.5l90 -6v-61q-123 6 -246 6q-117 0 -237 -6v61l90 6q70 4 87 34.5t17 150.5v919q0 120 -17 150.5t-87 34.5l-90 6v61 q150 -6 246 -6l110 6l985 -1216v964q0 120 -17 150.5t-87 34.5l-90 6v61q120 -6 237 -6q123 0 246 6v-61zM1190 1786q-6 -90 -71 -152.5t-152 -62.5q-63 0 -140 39q-109 53 -145 53q-70 0 -109 -92h-59q22 100 77 152.5t140 52.5q36 0 67.5 -11t114.5 -51q66 -31 97 -31 q43 0 70 23t50 80h60z" />
<glyph unicode="&#xd2;" horiz-adv-x="1609" d="M1565 752q0 -222 -105.5 -404t-290.5 -285.5t-411 -103.5q-204 0 -367 94.5t-254.5 263.5t-91.5 381q0 223 96.5 394.5t273.5 265.5t408 94q341 0 541.5 -189t200.5 -511zM1346 690q0 319 -147.5 497.5t-410.5 178.5q-252 0 -388 -154t-136 -438q0 -328 159 -528.5 t417 -200.5q238 0 372 170.5t134 474.5zM1038 1534h-88l-319 149q-54 26 -71 41.5t-17 38.5t19.5 39.5t47.5 16.5q55 -3 123 -54z" />
<glyph unicode="&#xd3;" horiz-adv-x="1609" d="M1565 752q0 -222 -105.5 -404t-290.5 -285.5t-411 -103.5q-204 0 -367 94.5t-254.5 263.5t-91.5 381q0 223 96.5 394.5t273.5 265.5t408 94q341 0 541.5 -189t200.5 -511zM1346 690q0 319 -147.5 497.5t-410.5 178.5q-252 0 -388 -154t-136 -438q0 -328 159 -528.5 t417 -200.5q238 0 372 170.5t134 474.5zM1104 1763q0 -23 -17 -38.5t-71 -41.5l-320 -149h-88l305 231q68 51 123 54q28 0 48 -16.5t20 -39.5z" />
<glyph unicode="&#xd4;" horiz-adv-x="1609" d="M1565 752q0 -222 -105.5 -404t-290.5 -285.5t-411 -103.5q-204 0 -367 94.5t-254.5 263.5t-91.5 381q0 223 96.5 394.5t273.5 265.5t408 94q341 0 541.5 -189t200.5 -511zM1346 690q0 319 -147.5 497.5t-410.5 178.5q-252 0 -388 -154t-136 -438q0 -328 159 -528.5 t417 -200.5q238 0 372 170.5t134 474.5zM1167 1540h-77l-269 172l-268 -172h-76l275 277h139z" />
<glyph unicode="&#xd5;" horiz-adv-x="1609" d="M1565 752q0 -222 -105.5 -404t-290.5 -285.5t-411 -103.5q-204 0 -367 94.5t-254.5 263.5t-91.5 381q0 223 96.5 394.5t273.5 265.5t408 94q341 0 541.5 -189t200.5 -511zM1346 690q0 319 -147.5 497.5t-410.5 178.5q-252 0 -388 -154t-136 -438q0 -328 159 -528.5 t417 -200.5q238 0 372 170.5t134 474.5zM1163 1786q-6 -90 -71 -152.5t-152 -62.5q-62 0 -139 39q-109 53 -146 53q-69 0 -108 -92h-60q22 100 77.5 152.5t140.5 52.5q36 0 67.5 -11t114.5 -51q66 -31 96 -31q43 0 70.5 23t50.5 80h59z" />
<glyph unicode="&#xd6;" horiz-adv-x="1609" d="M1565 752q0 -222 -105.5 -404t-290.5 -285.5t-411 -103.5q-204 0 -367 94.5t-254.5 263.5t-91.5 381q0 223 96.5 394.5t273.5 265.5t408 94q341 0 541.5 -189t200.5 -511zM1346 690q0 319 -147.5 497.5t-410.5 178.5q-252 0 -388 -154t-136 -438q0 -328 159 -528.5 t417 -200.5q238 0 372 170.5t134 474.5zM723 1677q0 -46 -28 -74t-74 -28t-74.5 28t-28.5 74t29 74.5t76 28.5q44 0 72 -29t28 -74zM1130 1677q0 -46 -28 -74t-74 -28t-74 28t-28 74t28.5 74.5t75.5 28.5q44 0 72 -29t28 -74z" />
<glyph unicode="&#xd7;" horiz-adv-x="1241" d="M1042 172l-81 -82l-340 340l-340 -340l-82 82l340 340l-340 340l82 82l340 -340l340 340l81 -82l-340 -340z" />
<glyph unicode="&#xd8;" horiz-adv-x="1705" d="M1632 1391l-180 -170q85 -108 122.5 -216t37.5 -247q0 -168 -61.5 -316.5t-168 -254t-255.5 -167t-318 -61.5q-186 0 -340 74q-62 29 -154 104l-186 -174l-68 60l193 180q-44 59 -64.5 94t-39.5 84q-58 147 -58 319q0 224 96 395t272.5 264t407.5 93q205 0 369 -74 q72 -34 154 -96l176 170zM1393 696q0 122 -18 208.5t-62 182.5l-864 -819q91 -118 192.5 -170.5t241.5 -52.5q243 0 376.5 170.5t133.5 480.5zM1262 1167q-60 68 -106 101t-118 59q-101 39 -213 39q-246 0 -380 -156t-134 -442q0 -129 20.5 -227.5t69.5 -198.5z" />
<glyph unicode="&#xd9;" horiz-adv-x="1593" d="M1554 1356l-90 -6q-70 -4 -87 -34.5t-17 -150.5v-592q0 -336 -141 -477q-134 -137 -445 -137q-308 0 -432 127q-115 118 -115 352v727q0 53 -2 81.5t-7 51t-18 32t-29.5 14t-47.5 6.5l-98 6v61q150 -6 299 -6q151 0 301 6v-61l-99 -6q-31 -2 -47.5 -6.5t-29.5 -14 t-18 -32t-7 -51t-2 -81.5v-704q0 -197 96.5 -286t310.5 -89q223 0 330 103.5t107 320.5v655q0 64 -2.5 96t-15 53.5t-31 27.5t-56.5 8l-90 6v61q120 -6 238 -6q122 0 245 6v-61zM1059 1534h-88l-320 149q-54 26 -71 41.5t-17 38.5t20 39.5t48 16.5q55 -3 123 -54z" />
<glyph unicode="&#xda;" horiz-adv-x="1593" d="M1554 1356l-90 -6q-70 -4 -87 -34.5t-17 -150.5v-592q0 -336 -141 -477q-134 -137 -445 -137q-308 0 -432 127q-115 118 -115 352v727q0 53 -2 81.5t-7 51t-18 32t-29.5 14t-47.5 6.5l-98 6v61q150 -6 299 -6q151 0 301 6v-61l-99 -6q-31 -2 -47.5 -6.5t-29.5 -14 t-18 -32t-7 -51t-2 -81.5v-704q0 -197 96.5 -286t310.5 -89q223 0 330 103.5t107 320.5v655q0 64 -2.5 96t-15 53.5t-31 27.5t-56.5 8l-90 6v61q120 -6 238 -6q122 0 245 6v-61zM1124 1763q0 -23 -17 -38.5t-71 -41.5l-319 -149h-88l305 231q68 51 123 54q28 0 47.5 -16.5 t19.5 -39.5z" />
<glyph unicode="&#xdb;" horiz-adv-x="1593" d="M1554 1356l-90 -6q-70 -4 -87 -34.5t-17 -150.5v-592q0 -336 -141 -477q-134 -137 -445 -137q-308 0 -432 127q-115 118 -115 352v727q0 53 -2 81.5t-7 51t-18 32t-29.5 14t-47.5 6.5l-98 6v61q150 -6 299 -6q151 0 301 6v-61l-99 -6q-31 -2 -47.5 -6.5t-29.5 -14 t-18 -32t-7 -51t-2 -81.5v-704q0 -197 96.5 -286t310.5 -89q223 0 330 103.5t107 320.5v655q0 64 -2.5 96t-15 53.5t-31 27.5t-56.5 8l-90 6v61q120 -6 238 -6q122 0 245 6v-61zM1188 1540h-78l-268 172l-269 -172h-75l274 277h139z" />
<glyph unicode="&#xdc;" horiz-adv-x="1593" d="M1554 1356l-90 -6q-70 -4 -87 -34.5t-17 -150.5v-592q0 -336 -141 -477q-134 -137 -445 -137q-308 0 -432 127q-115 118 -115 352v727q0 53 -2 81.5t-7 51t-18 32t-29.5 14t-47.5 6.5l-98 6v61q150 -6 299 -6q151 0 301 6v-61l-99 -6q-31 -2 -47.5 -6.5t-29.5 -14 t-18 -32t-7 -51t-2 -81.5v-704q0 -197 96.5 -286t310.5 -89q223 0 330 103.5t107 320.5v655q0 64 -2.5 96t-15 53.5t-31 27.5t-56.5 8l-90 6v61q120 -6 238 -6q122 0 245 6v-61zM743 1677q0 -46 -28 -74t-74 -28t-74 28t-28 74t28.5 74.5t75.5 28.5q44 0 72 -29t28 -74z M1151 1677q0 -46 -28 -74t-74 -28t-74.5 28t-28.5 74t29 74.5t76 28.5q44 0 72 -29t28 -74z" />
<glyph unicode="&#xdd;" horiz-adv-x="1366" d="M1339 1391q-121 -145 -194 -244t-191 -275q-89 -135 -118 -206t-29 -156v-264q0 -53 2 -81.5t7 -51t18 -32t29.5 -14t47.5 -6.5l99 -6v-61q-150 6 -301 6q-149 0 -299 -6v61l98 6q31 2 47.5 6.5t29.5 14t18 32t7 51t2 81.5v291q0 51 -18 81l-254 443 q-65 113 -137.5 186.5t-124.5 79.5l-60 6v60l246 51q28 0 83 -61.5t104 -149.5l292 -535l211 334q121 192 222 389h163v-30zM991 1763q0 -23 -17 -38.5t-71 -41.5l-319 -149h-88l305 231q68 51 123 54q28 0 47.5 -16.5t19.5 -39.5z" />
<glyph unicode="&#xde;" horiz-adv-x="1236" d="M1176 793q0 -180 -132 -306.5t-319 -126.5q-69 0 -119 13l-22 76q71 -19 127 -19q109 0 184.5 87.5t75.5 213.5q0 293 -348 293q-81 0 -160 -18v-760q0 -53 2 -81.5t7 -51t18 -32t29.5 -14t47.5 -6.5l99 -6v-61q-150 6 -301 6q-149 0 -299 -6v61l98 6q31 2 47.5 6.5 t29.5 14t18 32t7 51t2 81.5v919q0 53 -2 81.5t-7 51t-18 32t-29.5 14t-47.5 6.5l-98 6v61q150 -6 299 -6q151 0 301 6v-61l-99 -6q-31 -2 -47.5 -6.5t-29.5 -14t-18 -32t-7 -51t-2 -81.5v-55q35 -4 94 -4q197 2 203 2q191 0 303.5 -85t112.5 -230z" />
<glyph unicode="&#xdf;" horiz-adv-x="1138" d="M1063 334q0 -63 -22 -122.5t-54 -84.5l-119 -90q-70 -55 -161 -55q-98 0 -191 41v-29q-117 6 -235 6q-117 0 -234 -6v61l74 6q52 4 64 27.5t12 120.5v579h-142v29l142 72v135q0 61 21 116t73 126q77 105 190.5 168t225.5 63q137 0 223 -82.5t86 -212.5q0 -167 -90 -401 q-82 47 -146 47q-49 0 -78.5 -24t-29.5 -64q0 -43 39.5 -81t136.5 -87q114 -57 164.5 -117.5t50.5 -140.5zM930 225q0 71 -43 122.5t-148 107.5q-115 60 -152.5 103t-37.5 112q0 72 39 114l80 88q66 72 211 72q22 90 22 168q0 135 -72 214t-196 79q-143 0 -203.5 -103.5 t-60.5 -347.5v-735q0 -91 21 -127.5t73 -36.5h57l43 174h55v-94q41 -37 73 -51t73 -14q71 0 118.5 44t47.5 111z" />
<glyph unicode="&#xe0;" d="M965 -6q-77 6 -152 6q-81 0 -160 -6l11 174l-254 -176q-24 -17 -86 -17q-122 0 -190 66t-68 186q0 134 93 211t302 115l203 37q-5 140 -69.5 201t-209.5 61q-71 0 -99 -19.5t-59 -91.5l-26 -63l-54 14v133l109 66q116 70 248 70q178 0 250.5 -91.5t72.5 -316.5v-375 q0 -75 10.5 -96t47.5 -23l80 -4v-61zM664 254v270q-244 -36 -320 -82q-46 -30 -74 -80t-28 -106q0 -66 45.5 -115t107.5 -49q60 0 142.5 49.5t126.5 112.5zM686 1036h-82l-295 185q-51 32 -66.5 50t-15.5 46q0 29 19 49t45 20q45 0 112 -67z" />
<glyph unicode="&#xe1;" d="M965 -6q-77 6 -152 6q-81 0 -160 -6l11 174l-254 -176q-24 -17 -86 -17q-122 0 -190 66t-68 186q0 134 93 211t302 115l203 37q-5 140 -69.5 201t-209.5 61q-71 0 -99 -19.5t-59 -91.5l-26 -63l-54 14v133l109 66q116 70 248 70q178 0 250.5 -91.5t72.5 -316.5v-375 q0 -75 10.5 -96t47.5 -23l80 -4v-61zM664 254v270q-244 -36 -320 -82q-46 -30 -74 -80t-28 -106q0 -66 45.5 -115t107.5 -49q60 0 142.5 49.5t126.5 112.5zM780 1317q0 -28 -15.5 -46t-66.5 -50l-295 -185h-81l282 283q67 67 113 67q26 0 44.5 -20t18.5 -49z" />
<glyph unicode="&#xe2;" d="M965 -6q-77 6 -152 6q-81 0 -160 -6l11 174l-254 -176q-24 -17 -86 -17q-122 0 -190 66t-68 186q0 134 93 211t302 115l203 37q-5 140 -69.5 201t-209.5 61q-71 0 -99 -19.5t-59 -91.5l-26 -63l-54 14v133l109 66q116 70 248 70q178 0 250.5 -91.5t72.5 -316.5v-375 q0 -75 10.5 -96t47.5 -23l80 -4v-61zM664 254v270q-244 -36 -320 -82q-46 -30 -74 -80t-28 -106q0 -66 45.5 -115t107.5 -49q60 0 142.5 49.5t126.5 112.5zM823 1042h-71l-248 211l-248 -211h-72l256 342h127z" />
<glyph unicode="&#xe3;" d="M965 -6q-77 6 -152 6q-81 0 -160 -6l11 174l-254 -176q-24 -17 -86 -17q-122 0 -190 66t-68 186q0 134 93 211t302 115l203 37q-5 140 -69.5 201t-209.5 61q-71 0 -99 -19.5t-59 -91.5l-26 -63l-54 14v133l109 66q116 70 248 70q178 0 250.5 -91.5t72.5 -316.5v-375 q0 -75 10.5 -96t47.5 -23l80 -4v-61zM664 254v270q-244 -36 -320 -82q-46 -30 -74 -80t-28 -106q0 -66 45.5 -115t107.5 -49q60 0 142.5 49.5t126.5 112.5zM842 1321q-6 -89 -71 -152t-153 -63q-62 0 -139 39q-109 53 -145 53q-70 0 -109 -92h-59q22 100 77 152.5t140 52.5 q36 0 67.5 -11t114.5 -51q64 -30 97 -30q43 0 70 22.5t50 79.5h60z" />
<glyph unicode="&#xe4;" d="M965 -6q-77 6 -152 6q-81 0 -160 -6l11 174l-254 -176q-24 -17 -86 -17q-122 0 -190 66t-68 186q0 134 93 211t302 115l203 37q-5 140 -69.5 201t-209.5 61q-71 0 -99 -19.5t-59 -91.5l-26 -63l-54 14v133l109 66q116 70 248 70q178 0 250.5 -91.5t72.5 -316.5v-375 q0 -75 10.5 -96t47.5 -23l80 -4v-61zM664 254v270q-244 -36 -320 -82q-46 -30 -74 -80t-28 -106q0 -66 45.5 -115t107.5 -49q60 0 142.5 49.5t126.5 112.5zM401 1212q0 -46 -28 -74t-74 -28t-74 28t-28 74t28.5 74.5t75.5 28.5q44 0 72 -29t28 -74zM809 1212q0 -46 -28 -74 t-74 -28t-74.5 28t-28.5 74t29 74.5t76 28.5q44 0 72 -29t28 -74z" />
<glyph unicode="&#xe5;" d="M965 -6q-77 6 -152 6q-81 0 -160 -6l11 174l-254 -176q-24 -17 -86 -17q-122 0 -190 66t-68 186q0 134 93 211t302 115l203 37q-5 140 -69.5 201t-209.5 61q-71 0 -99 -19.5t-59 -91.5l-26 -63l-54 14v133l109 66q116 70 248 70q178 0 250.5 -91.5t72.5 -316.5v-375 q0 -75 10.5 -96t47.5 -23l80 -4v-61zM664 254v270q-244 -36 -320 -82q-46 -30 -74 -80t-28 -106q0 -66 45.5 -115t107.5 -49q60 0 142.5 49.5t126.5 112.5zM709 1212q0 -86 -60 -145t-145 -59q-86 0 -145.5 59t-59.5 147q0 85 60.5 144t148.5 59q82 0 141.5 -60.5 t59.5 -144.5zM631 1212q0 58 -34.5 94.5t-90.5 36.5q-58 0 -93.5 -35.5t-35.5 -93.5q0 -61 34 -97t93 -36q57 0 92 36t35 95z" />
<glyph unicode="&#xe6;" horiz-adv-x="1552" d="M1499 569q0 -11 -4 -69q-178 -29 -371 -29h-299q3 -89 15 -141t41 -103q42 -76 122.5 -117.5t182.5 -41.5q67 0 121.5 19.5t146.5 76.5l29 -21l-41 -69q-14 -22 -103 -60q-125 -55 -241 -55q-86 0 -165 29t-138 80q-51 47 -90 114l-252 -196q-34 -27 -113 -27 q-127 0 -203 70.5t-76 189.5q0 135 84 201q46 34 160.5 65.5t243.5 44.5l115 13q-5 91 -16 136.5t-40 86.5q-28 40 -75 63t-101 23q-53 0 -110 -16.5t-76 -38.5q-28 -32 -51 -119l-54 12v127l201 109q63 35 145 35q99 0 169 -34.5t130 -111.5q100 83 171 114.5t159 31.5 q107 0 195.5 -47.5t138.5 -131.5q49 -84 49 -213zM664 240v237q-123 -13 -165.5 -20.5t-109.5 -26.5q-92 -27 -115 -59q-36 -52 -36 -121q0 -74 45.5 -116t126.5 -42q72 0 129.5 33t124.5 115zM1329 547q0 79 -10 127t-37 98q-34 63 -76.5 92t-101.5 29q-62 0 -119.5 -28.5 t-93.5 -76.5q-31 -43 -45 -95.5t-17 -139.5q157 -14 261 -12z" />
<glyph unicode="&#xe7;" horiz-adv-x="909" d="M846 94l-43 -65q-15 -23 -99.5 -45.5t-152.5 -24.5l-43 -113q30 9 53 9q81 0 128.5 -39t47.5 -105q0 -80 -68 -126t-186 -46q-44 0 -75 6t-97 27l29 63q81 -22 135 -22q53 0 81 22.5t28 65.5q0 35 -22.5 57.5t-59.5 22.5q-29 0 -84 -14l-15 12l78 182q-192 15 -310 144 t-118 325q0 278 223 418q183 113 332 113q118 0 238 -72q-29 -119 -29 -252h-57l-15 125q-28 40 -92 66t-133 26q-138 0 -212.5 -89t-74.5 -253q0 -202 103.5 -324t273.5 -122q103 0 215 59z" />
<glyph unicode="&#xe8;" horiz-adv-x="980" d="M918 571q0 -11 -1 -21.5t-2 -25t-2 -24.5q-178 -29 -370 -29h-299q3 -89 15.5 -141t41.5 -103q43 -75 122 -117t179 -42q65 0 116 18.5t150 77.5l27 -21l-41 -69q-6 -10 -36.5 -28t-69.5 -34q-120 -53 -236 -53t-214.5 45.5t-158.5 126.5q-86 118 -86 318q0 160 55 262 t181 174q130 76 248 76q172 0 276.5 -106.5t104.5 -283.5zM735 547q0 99 -14.5 154.5t-50.5 109.5q-55 82 -158 82q-74 0 -135.5 -39t-93.5 -106q-20 -40 -27.5 -81.5t-7.5 -113.5q133 -12 258 -12zM719 1036h-82l-295 185q-51 32 -66.5 50t-15.5 46q0 29 19 49t45 20 q45 0 112 -67z" />
<glyph unicode="&#xe9;" horiz-adv-x="980" d="M918 571q0 -11 -1 -21.5t-2 -25t-2 -24.5q-178 -29 -370 -29h-299q3 -89 15.5 -141t41.5 -103q43 -75 122 -117t179 -42q65 0 116 18.5t150 77.5l27 -21l-41 -69q-6 -10 -36.5 -28t-69.5 -34q-120 -53 -236 -53t-214.5 45.5t-158.5 126.5q-86 118 -86 318q0 160 55 262 t181 174q130 76 248 76q172 0 276.5 -106.5t104.5 -283.5zM735 547q0 99 -14.5 154.5t-50.5 109.5q-55 82 -158 82q-74 0 -135.5 -39t-93.5 -106q-20 -40 -27.5 -81.5t-7.5 -113.5q133 -12 258 -12zM813 1317q0 -28 -15.5 -46t-66.5 -50l-295 -185h-82l283 283q67 67 113 67 q26 0 44.5 -20t18.5 -49z" />
<glyph unicode="&#xea;" horiz-adv-x="980" d="M918 571q0 -11 -1 -21.5t-2 -25t-2 -24.5q-178 -29 -370 -29h-299q3 -89 15.5 -141t41.5 -103q43 -75 122 -117t179 -42q65 0 116 18.5t150 77.5l27 -21l-41 -69q-6 -10 -36.5 -28t-69.5 -34q-120 -53 -236 -53t-214.5 45.5t-158.5 126.5q-86 118 -86 318q0 160 55 262 t181 174q130 76 248 76q172 0 276.5 -106.5t104.5 -283.5zM735 547q0 99 -14.5 154.5t-50.5 109.5q-55 82 -158 82q-74 0 -135.5 -39t-93.5 -106q-20 -40 -27.5 -81.5t-7.5 -113.5q133 -12 258 -12zM856 1042h-72l-247 211l-248 -211h-72l256 342h127z" />
<glyph unicode="&#xeb;" horiz-adv-x="980" d="M918 571q0 -11 -1 -21.5t-2 -25t-2 -24.5q-178 -29 -370 -29h-299q3 -89 15.5 -141t41.5 -103q43 -75 122 -117t179 -42q65 0 116 18.5t150 77.5l27 -21l-41 -69q-6 -10 -36.5 -28t-69.5 -34q-120 -53 -236 -53t-214.5 45.5t-158.5 126.5q-86 118 -86 318q0 160 55 262 t181 174q130 76 248 76q172 0 276.5 -106.5t104.5 -283.5zM735 547q0 99 -14.5 154.5t-50.5 109.5q-55 82 -158 82q-74 0 -135.5 -39t-93.5 -106q-20 -40 -27.5 -81.5t-7.5 -113.5q133 -12 258 -12zM434 1212q0 -46 -28 -74t-74 -28t-74.5 28t-28.5 74t29 74.5t76 28.5 q44 0 72 -29t28 -74zM842 1212q0 -46 -28.5 -74t-74.5 -28t-74 28t-28 74t28.5 74.5t75.5 28.5q44 0 72.5 -29.5t28.5 -73.5z" />
<glyph unicode="&#xec;" horiz-adv-x="587" d="M555 -6q-129 6 -256 6t-256 -6v61l94 6q52 3 64 26.5t12 121.5v461q0 72 -6 100.5t-23 38.5t-61 10h-76v58q159 18 320 84l18 -9v-743q0 -98 12 -121.5t64 -26.5l94 -6v-61zM481 1036h-82l-295 185q-51 32 -66 50t-15 46q0 29 18.5 49t44.5 20q46 0 113 -67z" />
<glyph unicode="&#xed;" horiz-adv-x="587" d="M555 -6q-129 6 -256 6t-256 -6v61l94 6q52 3 64 26.5t12 121.5v461q0 72 -6 100.5t-23 38.5t-61 10h-76v58q159 18 320 84l18 -9v-743q0 -98 12 -121.5t64 -26.5l94 -6v-61zM575 1317q0 -28 -15 -46t-66 -50l-295 -185h-82l282 283q67 67 113 67q26 0 44.5 -20t18.5 -49z " />
<glyph unicode="&#xee;" horiz-adv-x="587" d="M555 -6q-129 6 -256 6t-256 -6v61l94 6q52 3 64 26.5t12 121.5v461q0 72 -6 100.5t-23 38.5t-61 10h-76v58q159 18 320 84l18 -9v-743q0 -98 12 -121.5t64 -26.5l94 -6v-61zM618 1042h-71l-248 211l-248 -211h-71l256 342h126z" />
<glyph unicode="&#xef;" horiz-adv-x="587" d="M555 -6q-129 6 -256 6t-256 -6v61l94 6q52 3 64 26.5t12 121.5v461q0 72 -6 100.5t-23 38.5t-61 10h-76v58q159 18 320 84l18 -9v-743q0 -98 12 -121.5t64 -26.5l94 -6v-61zM197 1212q0 -46 -28.5 -74t-74.5 -28t-74 28t-28 74t28.5 74.5t75.5 28.5q44 0 72.5 -29.5 t28.5 -73.5zM604 1212q0 -46 -28 -74t-74 -28t-74.5 28t-28.5 74t29 74.5t76 28.5q44 0 72 -29t28 -74z" />
<glyph unicode="&#xf0;" horiz-adv-x="1118" d="M1032 537q0 -258 -142 -418t-370 -160q-204 0 -329 134t-125 351q0 227 137 372t352 145q118 0 219 -52l4 4q-81 181 -200 291l-287 -139l-37 61l278 136q-87 81 -249 163l69 66q113 -68 167.5 -104.5t105.5 -79.5l293 143l36 -61l-268 -132q81 -81 124.5 -134.5 t86.5 -121.5q135 -225 135 -464zM852 492q0 188 -80 288q-93 113 -237 113q-134 0 -206.5 -98t-72.5 -279q0 -215 84.5 -352t216.5 -137q99 0 164 65q62 63 96.5 168.5t34.5 231.5z" />
<glyph unicode="&#xf1;" horiz-adv-x="1191" d="M1171 -6q-85 6 -170 6q-82 0 -161 -6v581q0 118 -62.5 189.5t-165.5 71.5q-94 0 -177 -62t-83 -131v-434q0 -98 12 -121.5t64 -26.5l92 -6v-61q-126 6 -254 6t-254 -6v61l92 6q52 3 64 26.5t12 121.5v461q0 72 -6 100.5t-23 38.5t-61 10h-76v58q159 18 320 84l18 -9v-178 l156 135q60 52 162 52q342 0 342 -357v-395q0 -99 11.5 -122t63.5 -26l84 -6v-61zM934 1321q-6 -90 -71 -152.5t-152 -62.5q-63 0 -140 39q-109 53 -145 53q-70 0 -109 -92h-59q22 100 77 152.5t140 52.5q36 0 67.5 -11t114.5 -51q64 -30 97 -30q43 0 70 22.5t50 79.5h60z " />
<glyph unicode="&#xf2;" horiz-adv-x="1118" d="M1053 485q0 -230 -152.5 -378t-388.5 -148q-198 0 -322 134.5t-124 350.5q0 229 140.5 373t364.5 144q210 0 346 -134.5t136 -341.5zM862 410q0 209 -93 346t-234 137q-135 0 -207 -97.5t-72 -281.5q0 -218 92.5 -352.5t243.5 -134.5q125 0 197.5 103t72.5 280zM754 1036 h-82l-295 185q-51 32 -66.5 50t-15.5 46q0 29 18.5 49t44.5 20q46 0 113 -67z" />
<glyph unicode="&#xf3;" horiz-adv-x="1118" d="M1053 485q0 -230 -152.5 -378t-388.5 -148q-198 0 -322 134.5t-124 350.5q0 229 140.5 373t364.5 144q210 0 346 -134.5t136 -341.5zM862 410q0 209 -93 346t-234 137q-135 0 -207 -97.5t-72 -281.5q0 -218 92.5 -352.5t243.5 -134.5q125 0 197.5 103t72.5 280zM848 1317 q0 -28 -15.5 -46t-66.5 -50l-295 -185h-82l283 283q67 67 112 67q26 0 45 -20t19 -49z" />
<glyph unicode="&#xf4;" horiz-adv-x="1118" d="M1053 485q0 -230 -152.5 -378t-388.5 -148q-198 0 -322 134.5t-124 350.5q0 229 140.5 373t364.5 144q210 0 346 -134.5t136 -341.5zM862 410q0 209 -93 346t-234 137q-135 0 -207 -97.5t-72 -281.5q0 -218 92.5 -352.5t243.5 -134.5q125 0 197.5 103t72.5 280zM891 1042 h-72l-248 211l-247 -211h-72l256 342h127z" />
<glyph unicode="&#xf5;" horiz-adv-x="1118" d="M1053 485q0 -230 -152.5 -378t-388.5 -148q-198 0 -322 134.5t-124 350.5q0 229 140.5 373t364.5 144q210 0 346 -134.5t136 -341.5zM862 410q0 209 -93 346t-234 137q-135 0 -207 -97.5t-72 -281.5q0 -218 92.5 -352.5t243.5 -134.5q125 0 197.5 103t72.5 280zM909 1321 q-6 -90 -71 -152.5t-152 -62.5q-62 0 -139 39q-109 53 -146 53q-69 0 -108 -92h-60q22 100 77.5 152.5t140.5 52.5q36 0 67.5 -11t114.5 -51q64 -30 96 -30q43 0 70.5 23t50.5 79h59z" />
<glyph unicode="&#xf6;" horiz-adv-x="1118" d="M1053 485q0 -230 -152.5 -378t-388.5 -148q-198 0 -322 134.5t-124 350.5q0 229 140.5 373t364.5 144q210 0 346 -134.5t136 -341.5zM862 410q0 209 -93 346t-234 137q-135 0 -207 -97.5t-72 -281.5q0 -218 92.5 -352.5t243.5 -134.5q125 0 197.5 103t72.5 280zM469 1212 q0 -46 -28 -74t-74 -28t-74.5 28t-28.5 74t29 74.5t76 28.5q44 0 72 -29t28 -74zM877 1212q0 -46 -28.5 -74t-74.5 -28t-74 28t-28 74t28.5 74.5t75.5 28.5q44 0 72.5 -29.5t28.5 -73.5z" />
<glyph unicode="&#xf7;" horiz-adv-x="1241" d="M1159 455h-1077v114h1077v-114zM739 866q0 -50 -34.5 -84t-83.5 -34q-50 0 -84.5 34.5t-34.5 83.5q0 50 35 84.5t84 34.5t83.5 -34.5t34.5 -84.5zM739 158q0 -50 -34.5 -84.5t-83.5 -34.5t-84 34.5t-35 84.5q0 49 34.5 83.5t84.5 34.5q49 0 83.5 -34t34.5 -84z" />
<glyph unicode="&#xf8;" horiz-adv-x="1138" d="M1085 920l-129 -125q58 -78 82.5 -148t24.5 -160q0 -229 -151.5 -378.5t-383.5 -149.5q-97 0 -167.5 26.5t-143.5 90.5l-127 -123l-57 47l137 131q-51 78 -72.5 149t-21.5 162q0 227 144 373t370 146q94 0 165.5 -26t147.5 -87l127 123zM872 403q0 125 -45 267l-487 -475 q52 -88 114.5 -128t145.5 -40q123 0 197.5 103t74.5 273zM795 741q-101 152 -252 152q-132 0 -204.5 -97t-72.5 -272q0 -128 41 -258z" />
<glyph unicode="&#xf9;" horiz-adv-x="1234" d="M1190 -6q-86 6 -170 6q-85 0 -170 -6q8 128 8 188l-137 -127q-86 -80 -229 -80q-171 0 -240 93q-28 38 -38.5 94.5t-10.5 163.5v344q0 72 -6 100.5t-23 38.5t-61 10h-76v58q158 17 319 84l19 -9v-604q0 -137 43 -186q52 -62 162 -62q116 0 202 86q35 35 55.5 75.5 t20.5 74.5v334q0 72 -6 100.5t-23 38.5t-61 10h-76v58q159 18 320 84l18 -9v-743q0 -99 12 -122t64 -26l84 -6v-61zM799 1036h-82l-295 185q-51 32 -66.5 50t-15.5 46q0 29 18.5 49t44.5 20q46 0 113 -67z" />
<glyph unicode="&#xfa;" horiz-adv-x="1234" d="M1190 -6q-86 6 -170 6q-85 0 -170 -6q8 128 8 188l-137 -127q-86 -80 -229 -80q-171 0 -240 93q-28 38 -38.5 94.5t-10.5 163.5v344q0 72 -6 100.5t-23 38.5t-61 10h-76v58q158 17 319 84l19 -9v-604q0 -137 43 -186q52 -62 162 -62q116 0 202 86q35 35 55.5 75.5 t20.5 74.5v334q0 72 -6 100.5t-23 38.5t-61 10h-76v58q159 18 320 84l18 -9v-743q0 -99 12 -122t64 -26l84 -6v-61zM893 1317q0 -28 -15.5 -46t-66.5 -50l-295 -185h-82l283 283q67 67 112 67q26 0 45 -20t19 -49z" />
<glyph unicode="&#xfb;" horiz-adv-x="1234" d="M1190 -6q-86 6 -170 6q-85 0 -170 -6q8 128 8 188l-137 -127q-86 -80 -229 -80q-171 0 -240 93q-28 38 -38.5 94.5t-10.5 163.5v344q0 72 -6 100.5t-23 38.5t-61 10h-76v58q158 17 319 84l19 -9v-604q0 -137 43 -186q52 -62 162 -62q116 0 202 86q35 35 55.5 75.5 t20.5 74.5v334q0 72 -6 100.5t-23 38.5t-61 10h-76v58q159 18 320 84l18 -9v-743q0 -99 12 -122t64 -26l84 -6v-61zM936 1042h-72l-248 211l-247 -211h-72l256 342h127z" />
<glyph unicode="&#xfc;" horiz-adv-x="1234" d="M1190 -6q-86 6 -170 6q-85 0 -170 -6q8 128 8 188l-137 -127q-86 -80 -229 -80q-171 0 -240 93q-28 38 -38.5 94.5t-10.5 163.5v344q0 72 -6 100.5t-23 38.5t-61 10h-76v58q158 17 319 84l19 -9v-604q0 -137 43 -186q52 -62 162 -62q116 0 202 86q35 35 55.5 75.5 t20.5 74.5v334q0 72 -6 100.5t-23 38.5t-61 10h-76v58q159 18 320 84l18 -9v-743q0 -99 12 -122t64 -26l84 -6v-61zM514 1212q0 -46 -28 -74t-74 -28t-74.5 28t-28.5 74t29 74.5t76 28.5q44 0 72 -29t28 -74zM922 1212q0 -46 -28.5 -74t-74.5 -28t-74 28t-28 74t28.5 74.5 t75.5 28.5q44 0 72.5 -29.5t28.5 -73.5z" />
<glyph unicode="&#xfd;" horiz-adv-x="1138" d="M1114 883l-57 -4q-38 -3 -74 -55.5t-98 -192.5l-416 -959q-59 -134 -129.5 -193t-173.5 -59q-51 0 -111 31l49 154h27q53 -47 105 -47q58 0 115.5 69.5t107.5 198.5l47 125l-338 827q-21 53 -44.5 74.5t-62.5 26.5l-36 4v57q120 -6 237 -6q118 0 238 6v-57l-78 -4 q-58 -3 -67.5 -35t18.5 -99l131 -344q54 -138 104 -225l244 598q23 56 7 78t-81 27l-53 4v57q99 -6 195 -6q95 0 194 6v-57zM889 1317q0 -28 -15.5 -46t-66.5 -50l-295 -185h-82l283 283q67 67 112 67q26 0 45 -20t19 -49z" />
<glyph unicode="&#xfe;" horiz-adv-x="1230" d="M1114 547q0 -107 -48 -219.5t-114 -159.5l-204 -148q-62 -45 -168 -45q-113 0 -242 52v-387q0 -98 12 -121.5t64 -26.5l94 -6v-61q-129 6 -256 6t-256 -6v61l94 6q52 3 64 26.5t12 121.5v1630q0 46 -11.5 65t-39.5 19h-115v57q121 19 186 34.5t133 41.5l19 -17v-714 l113 114q40 40 109 65.5t140 25.5q172 0 293 -121t121 -293zM936 471q0 166 -84.5 261t-230.5 95q-158 0 -246 -114q-37 -48 -37 -86v-426q62 -65 125.5 -93t150.5 -28q149 0 235.5 105.5t86.5 285.5z" />
<glyph unicode="&#xff;" horiz-adv-x="1138" d="M1114 883l-57 -4q-38 -3 -74 -55.5t-98 -192.5l-416 -959q-59 -134 -129.5 -193t-173.5 -59q-51 0 -111 31l49 154h27q53 -47 105 -47q58 0 115.5 69.5t107.5 198.5l47 125l-338 827q-21 53 -44.5 74.5t-62.5 26.5l-36 4v57q120 -6 237 -6q118 0 238 6v-57l-78 -4 q-58 -3 -67.5 -35t18.5 -99l131 -344q54 -138 104 -225l244 598q23 56 7 78t-81 27l-53 4v57q99 -6 195 -6q95 0 194 6v-57zM510 1212q0 -46 -28 -74t-74 -28t-74.5 28t-28.5 74t29 74.5t76 28.5q44 0 72 -29t28 -74zM918 1212q0 -46 -28.5 -74t-74.5 -28t-74 28t-28 74 t28.5 74.5t75.5 28.5q44 0 72.5 -29.5t28.5 -73.5z" />
<glyph unicode="&#x152;" horiz-adv-x="2043" d="M1970 336q-33 -175 -33 -336l-327 -6l-219 2q-133 1 -336 -18.5t-254 -18.5q-223 0 -394.5 91t-266.5 259t-95 387q0 223 97 395t272.5 266.5t402.5 94.5q70 0 225 -20.5t162 -20.5l486 6l247 -6q-32 -125 -32 -311h-72v133q0 36 -9.5 48.5t-45.5 21.5q-110 28 -289 28 q-101 0 -143 -3t-89 -13v-547q131 -8 310 -8q74 0 107.5 14.5t37.5 63.5l10 106h62q-6 -120 -6 -237q0 -114 6 -228h-62l-10 119q-4 49 -37.5 63.5t-107.5 14.5h-111q-120 0 -199 -6v-574q79 -16 199 -16q296 0 363 24q21 8 40 52t29 110l10 70h72zM1063 285v817 q0 101 -10 170q-103 90 -273 90q-250 0 -390 -159.5t-140 -444.5q0 -205 68.5 -367t191 -252t278.5 -90q71 0 149 19t116 47q10 69 10 170z" />
<glyph unicode="&#x153;" horiz-adv-x="1693" d="M1638 571q0 -13 -4 -71q-178 -29 -370 -29h-299q3 -89 15.5 -141t41.5 -103q43 -76 122 -117.5t181 -41.5q67 0 121.5 19.5t146.5 76.5l29 -21l-41 -69q-13 -20 -102 -60q-132 -55 -236 -55t-183 40.5t-169 137.5q-94 -98 -175.5 -138t-187.5 -40q-202 0 -332 144 t-130 368q0 220 135 355t356 135q109 0 187.5 -35t166.5 -121q100 89 172.5 122.5t167.5 33.5q177 0 282 -106t105 -284zM825 416q0 221 -82.5 349t-224.5 128q-262 0 -262 -361q0 -224 87.5 -364.5t227.5 -140.5q121 0 187.5 101.5t66.5 287.5zM1468 547q0 79 -10 127 t-37 98q-65 121 -176 121q-64 0 -122.5 -28.5t-92.5 -76.5q-32 -44 -45 -95t-16 -140q157 -14 260 -12z" />
<glyph unicode="&#x178;" horiz-adv-x="1366" d="M1339 1391q-121 -145 -194 -244t-191 -275q-89 -135 -118 -206t-29 -156v-264q0 -53 2 -81.5t7 -51t18 -32t29.5 -14t47.5 -6.5l99 -6v-61q-150 6 -301 6q-149 0 -299 -6v61l98 6q31 2 47.5 6.5t29.5 14t18 32t7 51t2 81.5v291q0 51 -18 81l-254 443 q-65 113 -137.5 186.5t-124.5 79.5l-60 6v60l246 51q28 0 83 -61.5t104 -149.5l292 -535l211 334q121 192 222 389h163v-30zM610 1677q0 -46 -28 -74t-74 -28t-74 28t-28 74t28.5 74.5t75.5 28.5q44 0 72 -29t28 -74zM1018 1677q0 -46 -28.5 -74t-74.5 -28t-74 28t-28 74 t29 74.5t76 28.5q44 0 72 -29t28 -74z" />
<glyph unicode="&#x2c6;" horiz-adv-x="681" d="M662 1042h-72l-248 211l-248 -211h-71l256 342h127z" />
<glyph unicode="&#x2dc;" horiz-adv-x="681" d="M680 1321q-6 -90 -71 -152.5t-152 -62.5q-63 0 -140 39q-109 53 -145 53q-70 0 -109 -92h-59q22 100 77 152.5t140 52.5q36 0 67.5 -11t114.5 -51q64 -30 97 -30q43 0 70.5 23t50.5 79h59z" />
<glyph unicode="&#x2000;" horiz-adv-x="961" />
<glyph unicode="&#x2001;" horiz-adv-x="1923" />
<glyph unicode="&#x2002;" horiz-adv-x="961" />
<glyph unicode="&#x2003;" horiz-adv-x="1923" />
<glyph unicode="&#x2004;" horiz-adv-x="641" />
<glyph unicode="&#x2005;" horiz-adv-x="480" />
<glyph unicode="&#x2006;" horiz-adv-x="320" />
<glyph unicode="&#x2007;" horiz-adv-x="320" />
<glyph unicode="&#x2008;" horiz-adv-x="240" />
<glyph unicode="&#x2009;" horiz-adv-x="384" />
<glyph unicode="&#x200a;" horiz-adv-x="106" />
<glyph unicode="&#x2010;" horiz-adv-x="681" d="M639 578l-61 -138h-533l-10 11l55 137h539z" />
<glyph unicode="&#x2011;" horiz-adv-x="681" d="M639 578l-61 -138h-533l-10 11l55 137h539z" />
<glyph unicode="&#x2012;" horiz-adv-x="681" d="M639 578l-61 -138h-533l-10 11l55 137h539z" />
<glyph unicode="&#x2013;" d="M1024 449h-1024v118h1024v-118z" />
<glyph unicode="&#x2014;" horiz-adv-x="2048" d="M2048 449h-2048v118h2048v-118z" />
<glyph unicode="&#x2018;" horiz-adv-x="569" d="M477 1432q-143 -228 -160 -457l-198 -62l-27 27q101 254 264 463l90 49z" />
<glyph unicode="&#x2019;" horiz-adv-x="569" d="M477 1425q-100 -252 -264 -462l-90 -50l-31 21q75 120 113 228t47 229l199 61z" />
<glyph unicode="&#x201a;" horiz-adv-x="569" d="M430 199q-101 -254 -264 -463l-90 -49l-31 20q74 120 112.5 228.5t47.5 228.5l198 61z" />
<glyph unicode="&#x201c;" d="M489 1432q-142 -226 -159 -457l-199 -62l-27 27q100 251 265 463l90 49zM920 1432q-143 -228 -160 -457l-199 -62l-26 27q101 254 264 463l90 49z" />
<glyph unicode="&#x201d;" d="M489 1425q-100 -252 -264 -462l-90 -50l-31 21q75 120 113 228t47 229l199 61zM920 1425q-99 -249 -265 -462l-90 -50l-30 21q74 120 112 227.5t47 229.5l199 61z" />
<glyph unicode="&#x201e;" d="M489 199q-101 -254 -264 -463l-90 -49l-31 20q74 120 112.5 228.5t47.5 228.5l199 61zM920 199q-100 -251 -265 -463l-90 -49l-30 20q74 119 112 227.5t47 229.5l199 61z" />
<glyph unicode="&#x2022;" horiz-adv-x="1241" d="M973 705q0 -146 -104.5 -249.5t-250.5 -103.5q-145 0 -247.5 105.5t-102.5 253.5q0 140 105.5 243t247.5 103q145 0 248.5 -103.5t103.5 -248.5z" />
<glyph unicode="&#x2026;" horiz-adv-x="2048" d="M1143 109q0 -47 -37 -83t-86 -36q-44 0 -79.5 36.5t-35.5 82.5t35.5 82t81.5 36q47 0 84 -36t37 -82zM461 109q0 -47 -37 -83t-86 -36q-44 0 -79.5 36.5t-35.5 82.5t35.5 82t81.5 36q47 0 84 -36t37 -82zM1825 109q0 -47 -37 -83t-86 -36q-44 0 -79.5 36.5t-35.5 82.5 t35.5 82t81.5 36q47 0 84 -36t37 -82z" />
<glyph unicode="&#x202f;" horiz-adv-x="384" />
<glyph unicode="&#x2039;" horiz-adv-x="677" d="M543 176l-47 -31l-361 351v24l361 357l47 -27l-244 -342z" />
<glyph unicode="&#x203a;" horiz-adv-x="677" d="M543 496l-361 -351l-47 31l244 332l-244 342l47 27l361 -357v-24z" />
<glyph unicode="&#x205f;" horiz-adv-x="480" />
<glyph unicode="&#x20ac;" d="M1026 59q-114 -100 -336 -100q-106 0 -193 35.5t-146 93.5t-101.5 137.5t-64.5 163.5t-31 176q-100 0 -158 -4l37 105q57 -11 117 -11v115q-125 0 -152 -2l37 104q44 -12 127 -12q12 85 37.5 162t69.5 149t102 124.5t140 84t179 31.5q222 0 336 -100q-2 -13 -11 -65.5 t-15.5 -104t-6.5 -88.5h-63l-4 184q-28 51 -94 76.5t-152 25.5q-124 0 -221.5 -131t-126.5 -348h350q106 0 182 12l-37 -106l-505 4q-3 -43 -3 -115q307 0 472 11l-37 -105l-430 4q23 -243 123 -388.5t233 -145.5q74 0 142 24t100 70l6 192h65q0 -37 6.5 -88.5t15.5 -104 t11 -65.5z" />
<glyph unicode="&#x2122;" horiz-adv-x="2004" d="M780 1415q-8 -81 -8 -184h-53l-6 90q0 12 -11.5 19.5t-25.5 7.5h-172q-2 -33 -2 -97v-442q0 -83 47 -86l59 -2v-49q-118 4 -178 4q-58 0 -176 -4v49l61 2q47 3 47 86v442q0 31 -4 97h-170q-15 0 -26.5 -7.5t-11.5 -19.5l-7 -90h-53q3 77 -8 184l248 -2h186zM1923 672 q-122 4 -182 4q-54 0 -156 -4v49l43 2q47 5 47 86v438l-30 -53l-209 -395q-14 -23 -34 -68t-30 -63h-45l-307 577v-436q0 -35 12.5 -60t38.5 -26l55 -2v-49q-94 4 -145 4q-47 0 -141 -4v49l57 2q26 1 38.5 26t12.5 60v469q0 35 -12.5 60t-38.5 26l-57 4v49q39 -4 116 -4 q82 0 123 4l303 -569l299 569q41 -4 121 -4q76 0 113 4v-49l-53 -4q-47 -3 -47 -86v-469q0 -83 47 -86l61 -2v-49z" />
<glyph unicode="&#x25fc;" horiz-adv-x="962" d="M0 963h963v-963h-963v963z" />
</font>
</defs>
</svg>
